  0
SECTION
  2
HEADER
  9
$ACADVER
  1
AC1015
  9
$ACADMAINTVER
 70
     6
  9
$DWGCODEPAGE
  3
ANSI_1252
  9
$INSBASE
 10
0.0
 20
0.0
 30
0.0
  9
$EXTMIN
 10
0.0
 20
0.0
 30
0.0
  9
$EXTMAX
 10
222.50589
 20
291.887451
 30
2.0
  9
$LIMMIN
 10
0.0
 20
0.0
  9
$LIMMAX
 10
420.0
 20
297.0
  9
$ORTHOMODE
 70
     0
  9
$REGENMODE
 70
     1
  9
$FILLMODE
 70
     1
  9
$QTEXTMODE
 70
     0
  9
$MIRRTEXT
 70
     1
  9
$LTSCALE
 40
1.0
  9
$ATTMODE
 70
     1
  9
$TEXTSIZE
 40
2.5
  9
$TRACEWID
 40
1.0
  9
$TEXTSTYLE
  7
STANDARD
  9
$CLAYER
  8
0
  9
$CELTYPE
  6
ByLayer
  9
$CECOLOR
 62
   256
  9
$CELTSCALE
 40
1.0
  9
$DISPSILH
 70
     0
  9
$DIMSCALE
 40
1.0
  9
$DIMASZ
 40
2.5
  9
$DIMEXO
 40
0.625
  9
$DIMDLI
 40
3.75
  9
$DIMRND
 40
0.0
  9
$DIMDLE
 40
0.0
  9
$DIMEXE
 40
1.25
  9
$DIMTP
 40
0.0
  9
$DIMTM
 40
0.0
  9
$DIMTXT
 40
2.5
  9
$DIMCEN
 40
2.5
  9
$DIMTSZ
 40
0.0
  9
$DIMTOL
 70
     0
  9
$DIMLIM
 70
     0
  9
$DIMTIH
 70
     0
  9
$DIMTOH
 70
     0
  9
$DIMSE1
 70
     0
  9
$DIMSE2
 70
     0
  9
$DIMTAD
 70
     1
  9
$DIMZIN
 70
     8
  9
$DIMBLK
  1

  9
$DIMASO
 70
     1
  9
$DIMSHO
 70
     1
  9
$DIMPOST
  1

  9
$DIMAPOST
  1

  9
$DIMALT
 70
     0
  9
$DIMALTD
 70
     3
  9
$DIMALTF
 40
0.03937
  9
$DIMLFAC
 40
1.0
  9
$DIMTOFL
 70
     1
  9
$DIMTVP
 40
0.0
  9
$DIMTIX
 70
     0
  9
$DIMSOXD
 70
     0
  9
$DIMSAH
 70
     0
  9
$DIMBLK1
  1

  9
$DIMBLK2
  1

  9
$DIMSTYLE
  2
STANDARD
  9
$DIMCLRD
 70
     0
  9
$DIMCLRE
 70
     0
  9
$DIMCLRT
 70
     0
  9
$DIMTFAC
 40
1.0
  9
$DIMGAP
 40
0.625
  9
$DIMJUST
 70
     0
  9
$DIMSD1
 70
     0
  9
$DIMSD2
 70
     0
  9
$DIMTOLJ
 70
     0
  9
$DIMTZIN
 70
     8
  9
$DIMALTZ
 70
     0
  9
$DIMALTTZ
 70
     0
  9
$DIMUPT
 70
     0
  9
$DIMDEC
 70
     2
  9
$DIMTDEC
 70
     2
  9
$DIMALTU
 70
     2
  9
$DIMALTTD
 70
     3
  9
$DIMTXSTY
  7
STANDARD
  9
$DIMAUNIT
 70
     0
  9
$DIMADEC
 70
     0
  9
$DIMALTRND
 40
0.0
  9
$DIMAZIN
 70
     0
  9
$DIMDSEP
 70
    44
  9
$DIMATFIT
 70
     0
  9
$DIMFRAC
 70
     0
  9
$DIMLDRBLK
  1

  9
$DIMLUNIT
 70
     2
  9
$DIMLWD
 70
    -2
  9
$DIMLWE
 70
    -2
  9
$DIMTMOVE
 70
     0
  9
$LUNITS
 70
     2
  9
$LUPREC
 70
     4
  9
$SKETCHINC
 40
1.0
  9
$FILLETRAD
 40
2.5
  9
$AUNITS
 70
     0
  9
$AUPREC
 70
     0
  9
$MENU
  1
.
  9
$ELEVATION
 40
0.0
  9
$PELEVATION
 40
0.0
  9
$THICKNESS
 40
0.0
  9
$LIMCHECK
 70
     0
  9
$CHAMFERA
 40
2.5
  9
$CHAMFERB
 40
2.5
  9
$CHAMFERC
 40
0.0
  9
$CHAMFERD
 40
0.0
  9
$SKPOLY
 70
     0
  9
$TDCREATE
 40
0.000000000
  9
$TDUCREATE
 40
0.000000000
  9
$TDUPDATE
 40
0.000000000
  9
$TDUUPDATE
 40
0.000000000
  9
$TDINDWG
 40
0.0000000000
  9
$TDUSRTIMER
 40
0.0000000000
  9
$USRTIMER
 70
     1
  9
$ANGBASE
 50
0.0
  9
$ANGDIR
 70
     0
  9
$PDMODE
 70
     0
  9
$PDSIZE
 40
0.0
  9
$PLINEWID
 40
0.0
  9
$SPLFRAME
 70
     0
  9
$SPLINETYPE
 70
     6
  9
$SPLINESEGS
 70
     8
  9
$HANDSEED
  5
275
  9
$SURFTAB1
 70
     6
  9
$SURFTAB2
 70
     6
  9
$SURFTYPE
 70
     6
  9
$SURFU
 70
     6
  9
$SURFV
 70
     6
  9
$UCSBASE
  2

  9
$UCSNAME
  2

  9
$UCSORG
 10
0.0
 20
0.0
 30
0.0
  9
$UCSXDIR
 10
1.0
 20
0.0
 30
0.0
  9
$UCSYDIR
 10
0.0
 20
1.0
 30
0.0
  9
$UCSORTHOREF
  2

  9
$UCSORTHOVIEW
 70
     1
  9
$UCSORGTOP
 10
0.0
 20
0.0
 30
0.0
  9
$UCSORGBOTTOM
 10
0.0
 20
0.0
 30
0.0
  9
$UCSORGLEFT
 10
0.0
 20
0.0
 30
0.0
  9
$UCSORGRIGHT
 10
0.0
 20
0.0
 30
0.0
  9
$UCSORGFRONT
 10
0.0
 20
0.0
 30
0.0
  9
$UCSORGBACK
 10
0.0
 20
0.0
 30
0.0
  9
$PUCSBASE
  2

  9
$PUCSNAME
  2

  9
$PUCSORG
 10
0.0
 20
0.0
 30
0.0
  9
$PUCSXDIR
 10
1.0
 20
0.0
 30
0.0
  9
$PUCSYDIR
 10
0.0
 20
1.0
 30
0.0
  9
$PUCSORTHOREF
  2

  9
$PUCSORTHOVIEW
 70
     0
  9
$PUCSORGTOP
 10
0.0
 20
0.0
 30
0.0
  9
$PUCSORGBOTTOM
 10
0.0
 20
0.0
 30
0.0
  9
$PUCSORGLEFT
 10
0.0
 20
0.0
 30
0.0
  9
$PUCSORGRIGHT
 10
0.0
 20
0.0
 30
0.0
  9
$PUCSORGFRONT
 10
0.0
 20
0.0
 30
0.0
  9
$PUCSORGBACK
 10
0.0
 20
0.0
 30
0.0
  9
$USERI1
 70
     0
  9
$USERI2
 70
     0
  9
$USERI3
 70
     0
  9
$USERI4
 70
     0
  9
$USERI5
 70
     0
  9
$USERR1
 40
0.0
  9
$USERR2
 40
0.0
  9
$USERR3
 40
0.0
  9
$USERR4
 40
0.0
  9
$USERR5
 40
0.0
  9
$WORLDVIEW
 70
     1
  9
$SHADEDGE
 70
     3
  9
$SHADEDIF
 70
    70
  9
$TILEMODE
 70
     1
  9
$MAXACTVP
 70
    48
  9
$PINSBASE
 10
0.0
 20
0.0
 30
0.0
  9
$PLIMCHECK
 70
     0
  9
$PEXTMIN
 10
0.0
 20
0.0
 30
0.0
  9
$PEXTMAX
 10
222.50589
 20
291.887451
 30
2.0
  9
$PLIMMIN
 10
0.0
 20
0.0
  9
$PLIMMAX
 10
420.0
 20
297.0
  9
$UNITMODE
 70
     0
  9
$VISRETAIN
 70
     0
  9
$PLINEGEN
 70
     0
  9
$PSLTSCALE
 70
     1
  9
$TREEDEPTH
 70
  3020
  9
$CMLSTYLE
  2
Standard
  9
$CMLJUST
 70
     0
  9
$CMLSCALE
 40
20.0
  9
$PROXYGRAPHICS
 70
     1
  9
$MEASUREMENT
 70
     1
  9
$CELWEIGHT
370
    -1
  9
$ENDCAPS
280
     0
  9
$JOINSTYLE
280
     0
  9
$LWDISPLAY
290
     0
  9
$INSUNITS
 70
     0
  9
$HYPERLINKBASE
  1

  9
$STYLESHEET
  1

  9
$XEDIT
290
     1
  9
$CEPSNTYPE
380
     0
  9
$PSTYLEMODE
290
     0
  9
$FINGERPRINTGUID
  2

  9
$VERSIONGUID
  2

  9
$EXTNAMES
290
     0
  9
$PSVPSCALE
 40
0.0
  0
ENDSEC
  0
SECTION
  2
CLASSES
  0
CLASS
  1
LWPOLYLINE
  2
AcDbPolyline
  3
AutoCAD 2000
 90
        0
280
     0
281
     1
  0
CLASS
  1
IMAGE
  2
AcDbRasterImage
  3
ISM
 90
      127
280
     0
281
     1
  0
CLASS
  1
OLE2FRAME
  2
AcDbOle2Frame
  3
AutoCAD 2000
 90
        0
280
     0
281
     1
  0
CLASS
  1
HATCH
  2
AcDbHatch
  3
AutoCAD 2000
 90
        0
280
     0
281
     1
  0
CLASS
  1
DICTIONARYVAR
  2
AcDbDictionaryVar
  3
AutoCAD 2000
 90
        0
280
     0
281
     0
  0
CLASS
  1
RASTERVARIABLES
  2
AcDbRasterVariables
  3
ISM
 90
        0
280
     0
281
     0
  0
CLASS
  1
IMAGEDEF
  2
AcDbRasterImageDef
  3
ISM
 90
        0
280
     0
281
     0
  0
CLASS
  1
IMAGEDEF_REACTOR
  2
AcDbRasterImageDefReactor
  3
ISM
 90
        1
280
     0
281
     0
  0
CLASS
  1
IDBUFFER
  2
AcDbIdBuffer
  3
AutoCAD 2000
 90
        0
280
     0
281
     0
  0
CLASS
  1
SPATIAL_FILTER
  2
AcDbSpatialFilter
  3
AutoCAD 2000
 90
        0
280
     0
281
     0
  0
CLASS
  1
XRECORD
  2
AcDbXrecord
  3
AutoCAD 2000
 90
        0
280
     0
281
     0
  0
CLASS
  1
SORTENTSTABLE
  2
AcDbSortentsTable
  3
AutoCAD 2000
 90
        0
280
     0
281
     0
  0
CLASS
  1
LAYER_INDEX
  2
AcDbLayerIndex
  3
AutoCAD 2000
 90
        0
280
     0
281
     0
  0
CLASS
  1
SPATIAL_INDEX
  2
AcDbSpatialIndex
  3
AutoCAD 2000
 90
        0
280
     0
281
     0
  0
CLASS
  1
OBJECT_PTR
  2
CAseDLPNTableRecord
  3
"ASE-LPNTableRecord"
 90
        1
280
     0
281
     0
  0
CLASS
  1
LAYOUT
  2
AcDbLayout
  3
AutoCAD 2000
 90
        0
280
     0
281
     0
  0
CLASS
  1
PLOTSETTINGS
  2
AcDbPlotSettings
  3
AutoCAD 2000
 90
        0
280
     0
281
     0
  0
CLASS
  1
ACDBDICTIONARYWDFLT
  2
AcDbDictionaryWithDefault
  3
AutoCAD 2000
 90
        0
280
     0
281
     0
  0
CLASS
  1
ACDBPLACEHOLDER
  2
AcDbPlaceHolder
  3
AutoCAD 2000
 90
        0
280
     0
281
     0
  0
CLASS
  1
VBA_PROJECT
  2
AcDbVbaProject
  3
acadvba
 90
        0
280
     0
281
     0
  0
CLASS
  1
WIPEOUT
  2
AcDbWipeout
  3
WipeOut|AutoCAD Express Tool|expresstools@autodesk.com
 90
      127
280
     0
281
     1
  0
CLASS
  1
WIPEOUTVARIABLES
  2
AcDbWipeoutVariables
  3
WipeOut|AutoCAD Express Tool|expresstools@autodesk.com
 90
        0
280
     0
281
     0
  0
CLASS
  1
RTEXT
  2
RText
  3
RText|AutoCAD Express Tool|expresstools@autodesk.com
 90
        0
280
     0
281
     1
  0
CLASS
  1
ARCALIGNEDTEXT
  2
AcDbArcAlignedText
  3
ATEXT|AutoCAD Express Tool|expresstools@autodesk.com
 90
        0
280
     0
281
     1
  0
ENDSEC
  0
SECTION
  2
TABLES
  0
TABLE
  2
VPORT
  5
7
100
AcDbSymbolTable
 70
     1
  0
VPORT
  5
15
100
AcDbSymbolTableRecord
100
AcDbViewportTableRecord
  2
*ACTIVE
 70
     0
 10
0.0
 20
0.0
 11
1.0
 21
1.0
 12
6.591288
 22
4.579184
 13
0.0
 23
0.0
 14
1.0
 24
1.0
 15
0.0
 25
0.0
 16
0.0
 26
0.0
 36
1.0
 17
0.0
 27
0.0
 37
0.0
 40
9.158369
 41
0.688564
 42
50.0
 43
0.0
 44
0.0
 50
0.0
 51
0.0
 71
     0
 72
   100
 73
     1
 74
     1
 75
     0
 76
     0
 77
     0
 78
     0
281
     0
 65
     0
110
0.0
120
0.0
130
0.0
111
1.0
121
0.0
131
0.0
112
0.0
122
1.0
132
0.0
345
0
346
0
 79
     0
146
0.0
  0
ENDTAB
  0
TABLE
  2
LTYPE
  5
4
100
AcDbSymbolTable
 70
     4
  0
LTYPE
  5
11
100
AcDbSymbolTableRecord
100
AcDbLinetypeTableRecord
  2
ByBlock
 70
    64
  3

 72
    65
 73
     0
 40
0.0
  0
LTYPE
  5
12
100
AcDbSymbolTableRecord
100
AcDbLinetypeTableRecord
  2
ByLayer
 70
    64
  3

 72
    65
 73
     0
 40
0.0
  0
LTYPE
  5
13
100
AcDbSymbolTableRecord
100
AcDbLinetypeTableRecord
  2
Continuous
 70
    64
  3
Solid line
 72
    65
 73
     0
 40
0.0
  0
LTYPE
  5
24
100
AcDbSymbolTableRecord
100
AcDbLinetypeTableRecord
  2
DASHDOT
 70
     0
  3
 __ . __ . __ . __ . __ . __ . __ . 
 72
    65
 73
     4
 40
18.5
 49
12.0
 74
     0
 49
-3.0
 74
     0
 49
0.5
 74
     0
 49
-3.0
 74
     0
  0
ENDTAB
  0
TABLE
  2
LAYER
  5
2
100
AcDbSymbolTable
 70
     1
  0
LAYER
  5
14
100
AcDbSymbolTableRecord
100
AcDbLayerTableRecord
  2
0
 70
     0
 62
     7
  6
Continuous
290
     1
370
    13
390
1D
  0
ENDTAB
  0
TABLE
  2
STYLE
  5
3
100
AcDbSymbolTable
 70
     2
  0
STYLE
  5
17
100
AcDbSymbolTableRecord
100
AcDbTextStyleTableRecord
  2
STANDARD
 70
     0
 40
0.0
 41
1.0
 50
0.0
 71
     0
 42
0.0
  3
isocp.shx
  4

  0
STYLE
  5
25
100
AcDbSymbolTableRecord
100
AcDbTextStyleTableRecord
  2
GDT
 70
     0
 40
0.0
 41
1.0
 50
0.0
 71
     0
 42
0.0
  3
gdt.shx
  4

  0
ENDTAB
  0
TABLE
  2
VIEW
  5
5
100
AcDbSymbolTable
 70
     0
  0
ENDTAB
  0
TABLE
  2
UCS
  5
6
100
AcDbSymbolTable
 70
     0
  0
ENDTAB
  0
TABLE
  2
APPID
  5
8
100
AcDbSymbolTable
 70
     1
  0
APPID
  5
16
100
AcDbSymbolTableRecord
100
AcDbRegAppTableRecord
  2
ACAD
 70
     0
  0
ENDTAB
  0
TABLE
  2
DIMSTYLE
  5
9
100
AcDbSymbolTable
 70
     1
100
AcDbDimStyleTable
 71
     0
  0
DIMSTYLE
105
18
100
AcDbSymbolTableRecord
100
AcDbDimStyleTableRecord
  2
STANDARD
 70
     0
  3

  4

 40
1.0
 41
2.5
 42
0.625
 43
3.75
 44
1.25
 45
0.0
 46
0.0
 47
0.0
 48
0.0
 71
     0
 72
     0
 73
     0
 74
     0
 75
     0
 76
     0
 77
     1
 78
     8
 79
     0
140
2.5
141
2.5
142
0.0
143
0.03937
144
1.0
145
0.0
146
1.0
147
0.625
148
0.0
170
     0
171
     3
172
     1
173
     0
174
     0
175
     0
176
     0
177
     0
178
     0
179
     0
271
     2
272
     2
273
     2
274
     3
275
     0
276
     0
277
     2
278
    44
279
     0
280
     0
281
     0
282
     0
283
     0
284
     8
285
     0
286
     0
288
     0
289
     0
340
0
341
0
342
0
343
0
344
0
371
    -2
372
    -2
  0
ENDTAB
  0
TABLE
  2
BLOCK_RECORD
  5
1
100
AcDbSymbolTable
 70
    36
  0
BLOCK_RECORD
  5
A
100
AcDbSymbolTableRecord
100
AcDbBlockTableRecord
  2
*MODEL_SPACE
340
20
  0
BLOCK_RECORD
  5
B
100
AcDbSymbolTableRecord
100
AcDbBlockTableRecord
  2
*PAPER_SPACE
340
21
  0
BLOCK_RECORD
  5
65
100
AcDbSymbolTableRecord
100
AcDbBlockTableRecord
  2
BLOCK1
340
0
102
{BLKREFS
331
257
102
}
  0
BLOCK_RECORD
  5
66
100
AcDbSymbolTableRecord
100
AcDbBlockTableRecord
  2
BLOCK2
340
0
102
{BLKREFS
331
258
102
}
  0
BLOCK_RECORD
  5
67
100
AcDbSymbolTableRecord
100
AcDbBlockTableRecord
  2
BLOCK3
340
0
102
{BLKREFS
331
259
102
}
  0
BLOCK_RECORD
  5
68
100
AcDbSymbolTableRecord
100
AcDbBlockTableRecord
  2
BLOCK4
340
0
102
{BLKREFS
331
25A
102
}
  0
BLOCK_RECORD
  5
69
100
AcDbSymbolTableRecord
100
AcDbBlockTableRecord
  2
BLOCK5
340
0
102
{BLKREFS
331
25B
102
}
  0
BLOCK_RECORD
  5
6A
100
AcDbSymbolTableRecord
100
AcDbBlockTableRecord
  2
BLOCK6
340
0
102
{BLKREFS
331
25C
102
}
  0
BLOCK_RECORD
  5
6B
100
AcDbSymbolTableRecord
100
AcDbBlockTableRecord
  2
BLOCK7
340
0
102
{BLKREFS
331
25D
102
}
  0
BLOCK_RECORD
  5
6C
100
AcDbSymbolTableRecord
100
AcDbBlockTableRecord
  2
BLOCK8
340
0
102
{BLKREFS
331
25E
102
}
  0
BLOCK_RECORD
  5
6D
100
AcDbSymbolTableRecord
100
AcDbBlockTableRecord
  2
BLOCK9
340
0
102
{BLKREFS
331
25F
102
}
  0
BLOCK_RECORD
  5
6E
100
AcDbSymbolTableRecord
100
AcDbBlockTableRecord
  2
BLOCK10
340
0
102
{BLKREFS
331
260
102
}
  0
BLOCK_RECORD
  5
6F
100
AcDbSymbolTableRecord
100
AcDbBlockTableRecord
  2
BLOCK11
340
0
102
{BLKREFS
331
261
102
}
  0
BLOCK_RECORD
  5
70
100
AcDbSymbolTableRecord
100
AcDbBlockTableRecord
  2
BLOCK12
340
0
102
{BLKREFS
331
262
102
}
  0
BLOCK_RECORD
  5
71
100
AcDbSymbolTableRecord
100
AcDbBlockTableRecord
  2
BLOCK13
340
0
102
{BLKREFS
331
263
102
}
  0
BLOCK_RECORD
  5
72
100
AcDbSymbolTableRecord
100
AcDbBlockTableRecord
  2
BLOCK14
340
0
102
{BLKREFS
331
264
102
}
  0
BLOCK_RECORD
  5
73
100
AcDbSymbolTableRecord
100
AcDbBlockTableRecord
  2
BLOCK15
340
0
102
{BLKREFS
331
265
102
}
  0
BLOCK_RECORD
  5
74
100
AcDbSymbolTableRecord
100
AcDbBlockTableRecord
  2
BLOCK16
340
0
102
{BLKREFS
331
266
102
}
  0
BLOCK_RECORD
  5
75
100
AcDbSymbolTableRecord
100
AcDbBlockTableRecord
  2
BLOCK17
340
0
102
{BLKREFS
331
267
102
}
  0
BLOCK_RECORD
  5
76
100
AcDbSymbolTableRecord
100
AcDbBlockTableRecord
  2
BLOCK18
340
0
102
{BLKREFS
331
268
102
}
  0
BLOCK_RECORD
  5
77
100
AcDbSymbolTableRecord
100
AcDbBlockTableRecord
  2
BLOCK19
340
0
102
{BLKREFS
331
269
102
}
  0
BLOCK_RECORD
  5
78
100
AcDbSymbolTableRecord
100
AcDbBlockTableRecord
  2
BLOCK20
340
0
102
{BLKREFS
331
26A
102
}
  0
BLOCK_RECORD
  5
79
100
AcDbSymbolTableRecord
100
AcDbBlockTableRecord
  2
BLOCK21
340
0
102
{BLKREFS
331
26B
102
}
  0
BLOCK_RECORD
  5
7A
100
AcDbSymbolTableRecord
100
AcDbBlockTableRecord
  2
BLOCK22
340
0
102
{BLKREFS
331
26C
102
}
  0
BLOCK_RECORD
  5
7B
100
AcDbSymbolTableRecord
100
AcDbBlockTableRecord
  2
BLOCK23
340
0
102
{BLKREFS
331
26D
102
}
  0
BLOCK_RECORD
  5
7C
100
AcDbSymbolTableRecord
100
AcDbBlockTableRecord
  2
BLOCK24
340
0
102
{BLKREFS
331
26E
102
}
  0
BLOCK_RECORD
  5
7D
100
AcDbSymbolTableRecord
100
AcDbBlockTableRecord
  2
BLOCK25
340
0
102
{BLKREFS
331
26F
102
}
  0
BLOCK_RECORD
  5
7E
100
AcDbSymbolTableRecord
100
AcDbBlockTableRecord
  2
BLOCK26
340
0
102
{BLKREFS
331
270
102
}
  0
BLOCK_RECORD
  5
7F
100
AcDbSymbolTableRecord
100
AcDbBlockTableRecord
  2
BLOCK27
340
0
102
{BLKREFS
331
271
102
}
  0
BLOCK_RECORD
  5
80
100
AcDbSymbolTableRecord
100
AcDbBlockTableRecord
  2
BLOCK28
340
0
102
{BLKREFS
331
272
102
}
  0
BLOCK_RECORD
  5
56
100
AcDbSymbolTableRecord
100
AcDbBlockTableRecord
  2
*D28
340
0
  0
BLOCK_RECORD
  5
58
100
AcDbSymbolTableRecord
100
AcDbBlockTableRecord
  2
*D29
340
0
  0
BLOCK_RECORD
  5
5A
100
AcDbSymbolTableRecord
100
AcDbBlockTableRecord
  2
*D30
340
0
  0
BLOCK_RECORD
  5
81
100
AcDbSymbolTableRecord
100
AcDbBlockTableRecord
  2
BLOCK29
340
0
102
{BLKREFS
331
273
102
}
  0
BLOCK_RECORD
  5
5D
100
AcDbSymbolTableRecord
100
AcDbBlockTableRecord
  2
*D32
340
0
  0
BLOCK_RECORD
  5
5F
100
AcDbSymbolTableRecord
100
AcDbBlockTableRecord
  2
*D33
340
0
  0
BLOCK_RECORD
  5
61
100
AcDbSymbolTableRecord
100
AcDbBlockTableRecord
  2
*D34
340
0
  0
BLOCK_RECORD
  5
82
100
AcDbSymbolTableRecord
100
AcDbBlockTableRecord
  2
BLOCK30
340
0
102
{BLKREFS
331
274
102
}
  0
ENDTAB
  0
ENDSEC
  0
SECTION
  2
BLOCKS
  0
BLOCK
  5
D
100
AcDbEntity
  8
0
390
0
100
AcDbBlockBegin
  2
*MODEL_SPACE
 70
     0
 10
0.0
 20
0.0
 30
0.0
  3
*MODEL_SPACE
  1

  0
ENDBLK
  5
E
100
AcDbEntity
  8
0
390
0
100
AcDbBlockEnd
  0
BLOCK
  5
F
100
AcDbEntity
 67
     1
  8
0
390
0
100
AcDbBlockBegin
  2
*PAPER_SPACE
 70
     0
 10
0.0
 20
0.0
 30
0.0
  3
*PAPER_SPACE
  1

  0
ENDBLK
  5
10
100
AcDbEntity
 67
     1
  8
0
390
0
100
AcDbBlockEnd
  0
BLOCK
  5
83
100
AcDbEntity
  8
0
370
     0
390
0
100
AcDbBlockBegin
  2
BLOCK1
 70
     0
 10
0.0
 20
0.0
 30
0.0
  3
BLOCK1
  1

  0
TEXT
  5
84
100
AcDbEntity
  8
0
370
    13
390
0
 62
     7
100
AcDbText
 10
41.948341
 20
287.874939
 30
0.0
 40
2.0
  1
1
 41
0.75
 72
     5
 11
43.058216
 21
287.874939
 31
0.0
100
AcDbText
  0
ENDBLK
  5
85
100
AcDbEntity
  8
0
390
0
100
AcDbBlockEnd
  0
BLOCK
  5
86
100
AcDbEntity
  8
0
370
     0
390
0
100
AcDbBlockBegin
  2
BLOCK2
 70
     0
 10
0.0
 20
0.0
 30
0.0
  3
BLOCK2
  1

  0
TEXT
  5
87
100
AcDbEntity
  8
0
370
    13
390
0
 62
     7
100
AcDbText
 10
86.948349
 20
287.874939
 30
0.0
 40
2.0
  1
2
 41
0.75
 72
     5
 11
88.058228
 21
287.874939
 31
0.0
100
AcDbText
  0
ENDBLK
  5
88
100
AcDbEntity
  8
0
390
0
100
AcDbBlockEnd
  0
BLOCK
  5
89
100
AcDbEntity
  8
0
370
     0
390
0
100
AcDbBlockBegin
  2
BLOCK3
 70
     0
 10
0.0
 20
0.0
 30
0.0
  3
BLOCK3
  1

  0
TEXT
  5
8A
100
AcDbEntity
  8
0
370
    13
390
0
 62
     7
100
AcDbText
 10
131.948349
 20
287.874939
 30
0.0
 40
2.0
  1
3
 41
0.75
 72
     5
 11
133.058228
 21
287.874939
 31
0.0
100
AcDbText
  0
ENDBLK
  5
8B
100
AcDbEntity
  8
0
390
0
100
AcDbBlockEnd
  0
BLOCK
  5
8C
100
AcDbEntity
  8
0
370
     0
390
0
100
AcDbBlockBegin
  2
BLOCK4
 70
     0
 10
0.0
 20
0.0
 30
0.0
  3
BLOCK4
  1

  0
TEXT
  5
8D
100
AcDbEntity
  8
0
370
    13
390
0
 62
     7
100
AcDbText
 10
176.948349
 20
287.874939
 30
0.0
 40
2.0
  1
4
 41
0.75
 72
     5
 11
178.058228
 21
287.874939
 31
0.0
100
AcDbText
  0
ENDBLK
  5
8E
100
AcDbEntity
  8
0
390
0
100
AcDbBlockEnd
  0
BLOCK
  5
8F
100
AcDbEntity
  8
0
370
     0
390
0
100
AcDbBlockBegin
  2
BLOCK5
 70
     0
 10
0.0
 20
0.0
 30
0.0
  3
BLOCK5
  1

  0
TEXT
  5
90
100
AcDbEntity
  8
0
370
    13
390
0
 62
     7
100
AcDbText
 10
203.092789
 20
217.241501
 30
0.0
 40
2.0
  1
B
 50
90.000003
 41
0.75
 72
     5
 11
203.092789
 21
218.576691
 31
0.0
100
AcDbText
  0
ENDBLK
  5
91
100
AcDbEntity
  8
0
390
0
100
AcDbBlockEnd
  0
BLOCK
  5
92
100
AcDbEntity
  8
0
370
     0
390
0
100
AcDbBlockBegin
  2
BLOCK6
 70
     0
 10
0.0
 20
0.0
 30
0.0
  3
BLOCK6
  1

  0
TEXT
  5
93
100
AcDbEntity
  8
0
370
    13
390
0
 62
     7
100
AcDbText
 10
203.092789
 20
171.016418
 30
0.0
 40
2.0
  1
C
 50
90.000003
 41
0.75
 72
     5
 11
203.092789
 21
172.46843
 31
0.0
100
AcDbText
  0
ENDBLK
  5
94
100
AcDbEntity
  8
0
390
0
100
AcDbBlockEnd
  0
BLOCK
  5
95
100
AcDbEntity
  8
0
370
     0
390
0
100
AcDbBlockBegin
  2
BLOCK7
 70
     0
 10
0.0
 20
0.0
 30
0.0
  3
BLOCK7
  1

  0
TEXT
  5
96
100
AcDbEntity
  8
0
370
    13
390
0
 62
     7
100
AcDbText
 10
203.092789
 20
124.848709
 30
0.0
 40
2.0
  1
D
 50
90.000003
 41
0.75
 72
     5
 11
203.092789
 21
126.302811
 31
0.0
100
AcDbText
  0
ENDBLK
  5
97
100
AcDbEntity
  8
0
390
0
100
AcDbBlockEnd
  0
BLOCK
  5
98
100
AcDbEntity
  8
0
370
     0
390
0
100
AcDbBlockBegin
  2
BLOCK8
 70
     0
 10
0.0
 20
0.0
 30
0.0
  3
BLOCK8
  1

  0
TEXT
  5
99
100
AcDbEntity
  8
0
370
    13
390
0
 62
     7
100
AcDbText
 10
203.092789
 20
78.778008
 30
0.0
 40
2.0
  1
E
 50
90.000003
 41
0.75
 72
     5
 11
203.092789
 21
80.040176
 31
0.0
100
AcDbText
  0
ENDBLK
  5
9A
100
AcDbEntity
  8
0
390
0
100
AcDbBlockEnd
  0
BLOCK
  5
9B
100
AcDbEntity
  8
0
370
     0
390
0
100
AcDbBlockBegin
  2
BLOCK9
 70
     0
 10
0.0
 20
0.0
 30
0.0
  3
BLOCK9
  1

  0
TEXT
  5
9C
100
AcDbEntity
  8
0
370
    13
390
0
 62
     7
100
AcDbText
 10
203.092789
 20
32.649933
 30
0.0
 40
2.0
  1
F
 50
90.000003
 41
0.75
 72
     5
 11
203.092789
 21
33.834911
 31
0.0
100
AcDbText
  0
ENDBLK
  5
9D
100
AcDbEntity
  8
0
390
0
100
AcDbBlockEnd
  0
BLOCK
  5
9E
100
AcDbEntity
  8
0
370
     0
390
0
100
AcDbBlockBegin
  2
BLOCK10
 70
     0
 10
0.0
 20
0.0
 30
0.0
  3
BLOCK10
  1

  0
TEXT
  5
9F
100
AcDbEntity
  8
0
370
    13
390
0
 62
     7
100
AcDbText
 10
18.923407
 20
32.618019
 30
0.0
 40
2.0
  1
F
 50
90.000003
 41
0.75
 72
     5
 11
18.923407
 21
33.802998
 31
0.0
100
AcDbText
  0
ENDBLK
  5
A0
100
AcDbEntity
  8
0
390
0
100
AcDbBlockEnd
  0
BLOCK
  5
A1
100
AcDbEntity
  8
0
370
     0
390
0
100
AcDbBlockBegin
  2
BLOCK11
 70
     0
 10
0.0
 20
0.0
 30
0.0
  3
BLOCK11
  1

  0
TEXT
  5
A2
100
AcDbEntity
  8
0
370
    13
390
0
 62
     7
100
AcDbText
 10
19.092787
 20
78.778
 30
0.0
 40
2.0
  1
E
 50
90.000003
 41
0.75
 72
     5
 11
19.092787
 21
80.040169
 31
0.0
100
AcDbText
  0
ENDBLK
  5
A3
100
AcDbEntity
  8
0
390
0
100
AcDbBlockEnd
  0
BLOCK
  5
A4
100
AcDbEntity
  8
0
370
     0
390
0
100
AcDbBlockBegin
  2
BLOCK12
 70
     0
 10
0.0
 20
0.0
 30
0.0
  3
BLOCK12
  1

  0
TEXT
  5
A5
100
AcDbEntity
  8
0
370
    13
390
0
 62
     7
100
AcDbText
 10
19.092787
 20
124.848709
 30
0.0
 40
2.0
  1
D
 50
90.000003
 41
0.75
 72
     5
 11
19.092787
 21
126.302811
 31
0.0
100
AcDbText
  0
ENDBLK
  5
A6
100
AcDbEntity
  8
0
390
0
100
AcDbBlockEnd
  0
BLOCK
  5
A7
100
AcDbEntity
  8
0
370
     0
390
0
100
AcDbBlockBegin
  2
BLOCK13
 70
     0
 10
0.0
 20
0.0
 30
0.0
  3
BLOCK13
  1

  0
TEXT
  5
A8
100
AcDbEntity
  8
0
370
    13
390
0
 62
     7
100
AcDbText
 10
19.092787
 20
171.016418
 30
0.0
 40
2.0
  1
C
 50
90.000003
 41
0.75
 72
     5
 11
19.092787
 21
172.46843
 31
0.0
100
AcDbText
  0
ENDBLK
  5
A9
100
AcDbEntity
  8
0
390
0
100
AcDbBlockEnd
  0
BLOCK
  5
AA
100
AcDbEntity
  8
0
370
     0
390
0
100
AcDbBlockBegin
  2
BLOCK14
 70
     0
 10
0.0
 20
0.0
 30
0.0
  3
BLOCK14
  1

  0
TEXT
  5
AB
100
AcDbEntity
  8
0
370
    13
390
0
 62
     7
100
AcDbText
 10
19.092787
 20
217.241486
 30
0.0
 40
2.0
  1
B
 50
90.000003
 41
0.75
 72
     5
 11
19.092787
 21
218.576675
 31
0.0
100
AcDbText
  0
ENDBLK
  5
AC
100
AcDbEntity
  8
0
390
0
100
AcDbBlockEnd
  0
BLOCK
  5
AD
100
AcDbEntity
  8
0
370
     0
390
0
100
AcDbBlockBegin
  2
BLOCK15
 70
     0
 10
0.0
 20
0.0
 30
0.0
  3
BLOCK15
  1

  0
TEXT
  5
AE
100
AcDbEntity
  8
0
370
    13
390
0
 62
     7
100
AcDbText
 10
19.092789
 20
263.433197
 30
0.0
 40
2.0
  1
A
 50
90.000003
 41
0.75
 72
     5
 11
19.092789
 21
264.718323
 31
0.0
100
AcDbText
  0
ENDBLK
  5
AF
100
AcDbEntity
  8
0
390
0
100
AcDbBlockEnd
  0
BLOCK
  5
B0
100
AcDbEntity
  8
0
370
     0
390
0
100
AcDbBlockBegin
  2
BLOCK16
 70
     0
 10
0.0
 20
0.0
 30
0.0
  3
BLOCK16
  1

  0
TEXT
  5
B1
100
AcDbEntity
  8
0
370
    13
390
0
 62
     7
100
AcDbText
 10
41.948341
 20
6.874945
 30
0.0
 40
2.0
  1
1
 41
0.75
 72
     5
 11
43.058216
 21
6.874945
 31
0.0
100
AcDbText
  0
ENDBLK
  5
B2
100
AcDbEntity
  8
0
390
0
100
AcDbBlockEnd
  0
BLOCK
  5
B3
100
AcDbEntity
  8
0
370
     0
390
0
100
AcDbBlockBegin
  2
BLOCK17
 70
     0
 10
0.0
 20
0.0
 30
0.0
  3
BLOCK17
  1

  0
TEXT
  5
B4
100
AcDbEntity
  8
0
370
    13
390
0
 62
     7
100
AcDbText
 10
86.948349
 20
6.874945
 30
0.0
 40
2.0
  1
2
 41
0.75
 72
     5
 11
88.058228
 21
6.874945
 31
0.0
100
AcDbText
  0
ENDBLK
  5
B5
100
AcDbEntity
  8
0
390
0
100
AcDbBlockEnd
  0
BLOCK
  5
B6
100
AcDbEntity
  8
0
370
     0
390
0
100
AcDbBlockBegin
  2
BLOCK18
 70
     0
 10
0.0
 20
0.0
 30
0.0
  3
BLOCK18
  1

  0
TEXT
  5
B7
100
AcDbEntity
  8
0
370
    13
390
0
 62
     7
100
AcDbText
 10
131.948349
 20
6.874945
 30
0.0
 40
2.0
  1
3
 41
0.75
 72
     5
 11
133.058228
 21
6.874945
 31
0.0
100
AcDbText
  0
ENDBLK
  5
B8
100
AcDbEntity
  8
0
390
0
100
AcDbBlockEnd
  0
BLOCK
  5
B9
100
AcDbEntity
  8
0
370
     0
390
0
100
AcDbBlockBegin
  2
BLOCK19
 70
     0
 10
0.0
 20
0.0
 30
0.0
  3
BLOCK19
  1

  0
TEXT
  5
BA
100
AcDbEntity
  8
0
370
    13
390
0
 62
     7
100
AcDbText
 10
176.948349
 20
6.874945
 30
0.0
 40
2.0
  1
4
 41
0.75
 72
     5
 11
178.058228
 21
6.874945
 31
0.0
100
AcDbText
  0
ENDBLK
  5
BB
100
AcDbEntity
  8
0
390
0
100
AcDbBlockEnd
  0
BLOCK
  5
BC
100
AcDbEntity
  8
0
370
     0
390
0
100
AcDbBlockBegin
  2
BLOCK20
 70
     0
 10
0.0
 20
0.0
 30
0.0
  3
BLOCK20
  1

  0
TEXT
  5
BD
100
AcDbEntity
  8
0
370
    13
390
0
 62
     7
100
AcDbText
 10
200.262695
 20
6.931882
 30
0.0
 40
2.2
  1
A4
 41
0.8
 72
     5
 11
203.374161
 21
6.931882
 31
0.0
100
AcDbText
  0
ENDBLK
  5
BE
100
AcDbEntity
  8
0
390
0
100
AcDbBlockEnd
  0
BLOCK
  5
BF
100
AcDbEntity
  8
0
370
     0
390
0
100
AcDbBlockBegin
  2
BLOCK21
 70
     0
 10
0.0
 20
0.0
 30
0.0
  3
BLOCK21
  1

  0
TEXT
  5
C0
100
AcDbEntity
  8
0
370
    13
390
0
 62
     7
100
AcDbText
 10
152.95282
 20
20.734997
 30
0.0
 40
7.0
  1
127161 ...
 41
0.7
 72
     5
 11
195.457138
 21
20.734997
 31
0.0
100
AcDbText
  0
ENDBLK
  5
C1
100
AcDbEntity
  8
0
390
0
100
AcDbBlockEnd
  0
BLOCK
  5
C2
100
AcDbEntity
  8
0
370
     0
390
0
100
AcDbBlockBegin
  2
BLOCK22
 70
     0
 10
0.0
 20
0.0
 30
0.0
  3
BLOCK22
  1

  0
TEXT
  5
C3
100
AcDbEntity
  8
0
370
    13
390
0
 62
     7
100
AcDbText
 10
76.11969
 20
24.764885
 30
0.0
 40
3.5
  1
Stabilizzatore automatico di portata
 41
0.6
 72
     5
 11
141.697784
 21
24.764885
 31
0.0
100
AcDbText
  0
TEXT
  5
C4
100
AcDbEntity
  8
0
370
    13
390
0
 62
     7
100
AcDbText
 10
97.97905
 20
18.718056
 30
0.0
 40
3.5
  1
compatto \U+00D81"
 41
0.6
 72
     5
 11
119.838417
 21
18.718056
 31
0.0
100
AcDbText
  0
ENDBLK
  5
C5
100
AcDbEntity
  8
0
390
0
100
AcDbBlockEnd
  0
BLOCK
  5
C6
100
AcDbEntity
  8
0
370
     0
390
0
100
AcDbBlockBegin
  2
BLOCK23
 70
     0
 10
0.0
 20
0.0
 30
0.0
  3
BLOCK23
  1

  0
TEXT
  5
C7
100
AcDbEntity
  8
0
370
    13
390
0
 62
     7
100
AcDbText
 10
71.442711
 20
29.673382
 30
0.0
 40
1.2
  1
DESCRIPTION
 41
0.75
 72
     5
 11
82.356201
 21
29.673382
 31
0.0
100
AcDbText
  0
ENDBLK
  5
C8
100
AcDbEntity
  8
0
390
0
100
AcDbBlockEnd
  0
BLOCK
  5
C9
100
AcDbEntity
  8
0
370
     0
390
0
100
AcDbBlockBegin
  2
BLOCK24
 70
     0
 10
0.0
 20
0.0
 30
0.0
  3
BLOCK24
  1

  0
TEXT
  5
CA
100
AcDbEntity
  8
0
370
    13
390
0
 62
     7
100
AcDbText
 10
148.790222
 20
29.167343
 30
0.0
 40
1.2
  1
CODE
 41
0.75
 72
     5
 11
153.138763
 21
29.167343
 31
0.0
100
AcDbText
  0
ENDBLK
  5
CB
100
AcDbEntity
  8
0
390
0
100
AcDbBlockEnd
  0
BLOCK
  5
CC
100
AcDbEntity
  8
0
370
     0
390
0
100
AcDbBlockBegin
  2
BLOCK25
 70
     0
 10
0.0
 20
0.0
 30
0.0
  3
BLOCK25
  1

  0
TEXT
  5
CD
100
AcDbEntity
  8
0
370
    13
390
0
 62
     7
100
AcDbText
 10
71.50589
 20
14.63884
 30
0.0
 40
1.2
  1
Attenzione: documento gestito da sistema informatico: se distribuito esternamente, l'aggiornamento e la validit\U+00E0 dello stesso devono essere verificati ad ogni utilizzo. Sono vietate le modifiche manuali.
 50
0.000005
 41
0.731
 72
     5
 11
212.514542
 21
14.638852
 31
0.0
100
AcDbText
  0
ENDBLK
  5
CE
100
AcDbEntity
  8
0
390
0
100
AcDbBlockEnd
  0
BLOCK
  5
CF
100
AcDbEntity
  8
0
370
     0
390
0
100
AcDbBlockBegin
  2
BLOCK26
 70
     0
 10
0.0
 20
0.0
 30
0.0
  3
BLOCK26
  1

  0
TEXT
  5
D0
100
AcDbEntity
  8
0
370
    13
390
0
 62
     7
100
AcDbText
 10
71.702682
 20
11.06699
 30
0.0
 40
1.2
  1
Attention: document managed by software system: in case of external distribution, its update and validity must be checked at any need. Hand modifications are forbidden.
 50
0.000001
 41
0.731
 72
     5
 11
187.082474
 21
11.066993
 31
0.0
100
AcDbText
  0
ENDBLK
  5
D1
100
AcDbEntity
  8
0
390
0
100
AcDbBlockEnd
  0
BLOCK
  5
D2
100
AcDbEntity
  8
0
370
     0
390
0
100
AcDbBlockBegin
  2
BLOCK27
 70
     0
 10
0.0
 20
0.0
 30
0.0
  3
BLOCK27
  1

  0
TEXT
  5
D3
100
AcDbEntity
  8
0
370
    13
390
0
 62
     7
100
AcDbText
 10
71.463943
 20
16.193491
 30
0.0
 40
1.2
  1
Questo documento non \U+00E8 da ritenersi impegnativo. Ci riserviamo il diritto di modificare i nostri prodotti, di apportare miglioramenti tecnici e di svilupparli ulteriormente.
 41
0.7
 72
     5
 11
184.450195
 21
16.193491
 31
0.0
100
AcDbText
  0
ENDBLK
  5
D4
100
AcDbEntity
  8
0
390
0
100
AcDbBlockEnd
  0
BLOCK
  5
D5
100
AcDbEntity
  8
0
370
     0
390
0
100
AcDbBlockBegin
  2
BLOCK28
 70
     0
 10
0.0
 20
0.0
 30
0.0
  3
BLOCK28
  1

  0
TEXT
  5
D6
100
AcDbEntity
  8
0
370
    13
390
0
 62
     7
100
AcDbText
 10
71.590965
 20
12.673855
 30
0.0
 40
1.2
  1
This document can not be considered binding. We reserve the right to change our products, to produce technical improvements and to further develop them.
 41
0.731
 72
     5
 11
177.492218
 21
12.673855
 31
0.0
100
AcDbText
  0
ENDBLK
  5
D7
100
AcDbEntity
  8
0
390
0
100
AcDbBlockEnd
  0
BLOCK
  5
D8
100
AcDbEntity
  8
0
370
     0
390
0
100
AcDbBlockBegin
  2
*D28
 70
    65
 10
0.0
 20
0.0
 30
0.0
  3
*D28
  1

  0
SOLID
  5
D9
100
AcDbEntity
  8
0
370
    13
390
0
 62
     7
100
AcDbTrace
 10
53.77504
 20
248.101204
 30
0.0
 11
51.284554
 21
247.883316
 31
0.0
 12
53.77504
 22
248.101204
 32
0.0
 13
53.77504
 23
247.665428
 33
0.0
  0
SOLID
  5
DA
100
AcDbEntity
  8
0
370
    13
390
0
 62
     7
100
AcDbTrace
 10
168.794067
 20
247.665428
 30
0.0
 11
171.284554
 21
247.883316
 31
0.0
 12
168.794067
 22
247.665428
 32
0.0
 13
168.794067
 23
248.101204
 33
0.0
  0
TEXT
  5
DB
100
AcDbEntity
  8
0
370
    13
390
0
 62
     7
100
AcDbText
 10
108.792477
 20
248.883316
 30
0.0
 40
3.0
  1
120
 41
0.6
 72
     5
 11
113.77663
 21
248.883316
 31
0.0
100
AcDbText
  0
LINE
  5
DC
100
AcDbEntity
  8
0
370
    13
390
0
 62
     7
100
AcDbLine
 10
51.284554
 20
226.862959
 30
0.0
 11
51.284554
 21
248.883316
 31
0.0
210
0.0
220
0.0
230
1.0
  0
LINE
  5
DD
100
AcDbEntity
  8
0
370
    13
390
0
 62
     7
100
AcDbLine
 10
171.284554
 20
226.862959
 30
0.0
 11
171.284554
 21
248.883316
 31
0.0
210
0.0
220
0.0
230
1.0
  0
LINE
  5
DE
100
AcDbEntity
  8
0
370
    13
390
0
 62
     7
100
AcDbLine
 10
53.77504
 20
247.883316
 30
0.0
 11
168.794067
 21
247.883316
 31
0.0
210
0.0
220
0.0
230
1.0
  0
POLYLINE
  5
DF
100
AcDbEntity
  8
0
370
    13
390
0
 62
     7
100
AcDb2dPolyline
 66
     1
 10
0.0
 20
0.0
 30
0.0
 70
     1
 71
     3
  0
VERTEX
  5
E0
100
AcDbEntity
  8
0
370
     0
390
0
100
AcDbVertex
100
AcDb2dVertex
 10
53.77504
 20
248.101204
 30
0.0
  0
VERTEX
  5
E1
100
AcDbEntity
  8
0
370
     0
390
0
100
AcDbVertex
100
AcDb2dVertex
 10
51.284554
 20
247.883316
 30
0.0
  0
VERTEX
  5
E2
100
AcDbEntity
  8
0
370
     0
390
0
100
AcDbVertex
100
AcDb2dVertex
 10
53.77504
 20
247.665428
 30
0.0
  0
SEQEND
  5
E3
100
AcDbEntity
  8
0
370
     0
390
0
  0
POLYLINE
  5
E4
100
AcDbEntity
  8
0
370
    13
390
0
 62
     7
100
AcDb2dPolyline
 66
     1
 10
0.0
 20
0.0
 30
0.0
 70
     1
 71
     3
  0
VERTEX
  5
E5
100
AcDbEntity
  8
0
370
     0
390
0
100
AcDbVertex
100
AcDb2dVertex
 10
168.794067
 20
247.665428
 30
0.0
  0
VERTEX
  5
E6
100
AcDbEntity
  8
0
370
     0
390
0
100
AcDbVertex
100
AcDb2dVertex
 10
171.284554
 20
247.883316
 30
0.0
  0
VERTEX
  5
E7
100
AcDbEntity
  8
0
370
     0
390
0
100
AcDbVertex
100
AcDb2dVertex
 10
168.794067
 20
248.101204
 30
0.0
  0
SEQEND
  5
E8
100
AcDbEntity
  8
0
370
     0
390
0
  0
ENDBLK
  5
E9
100
AcDbEntity
  8
0
390
0
100
AcDbBlockEnd
  0
BLOCK
  5
EA
100
AcDbEntity
  8
0
370
     0
390
0
100
AcDbBlockBegin
  2
*D29
 70
    65
 10
0.0
 20
0.0
 30
0.0
  3
*D29
  1

  0
SOLID
  5
EB
100
AcDbEntity
  8
0
370
    13
390
0
 62
     7
100
AcDbTrace
 10
43.255623
 20
223.601963
 30
0.0
 11
43.037727
 21
226.092449
 31
0.0
 12
43.255623
 22
223.601963
 32
0.0
 13
42.819832
 23
223.601963
 33
0.0
  0
SOLID
  5
EC
100
AcDbEntity
  8
0
370
    13
390
0
 62
     7
100
AcDbTrace
 10
42.819832
 20
195.482937
 30
0.0
 11
43.037727
 21
192.992451
 31
0.0
 12
42.819832
 22
195.482937
 32
0.0
 13
43.255623
 23
195.482937
 33
0.0
  0
TEXT
  5
ED
100
AcDbEntity
  8
0
370
    13
390
0
 62
     7
100
AcDbText
 10
42.037727
 20
198.493456
 30
0.0
 40
3.0
  1
G1" ISO 228/1
 50
90.000003
 41
0.6
 72
     5
 11
42.037727
 21
220.591444
 31
0.0
100
AcDbText
  0
LINE
  5
EE
100
AcDbEntity
  8
0
370
    13
390
0
 62
     7
 48
0.231171
100
AcDbLine
 10
51.284554
 20
192.992451
 30
0.0
 11
42.037727
 21
192.992451
 31
0.0
210
0.0
220
0.0
230
1.0
  0
LINE
  5
EF
100
AcDbEntity
  8
0
370
    13
390
0
 62
     7
 48
0.231171
100
AcDbLine
 10
51.284554
 20
226.092449
 30
0.0
 11
42.037727
 21
226.092449
 31
0.0
210
0.0
220
0.0
230
1.0
  0
LINE
  5
F0
100
AcDbEntity
  8
0
370
    13
390
0
 62
     7
100
AcDbLine
 10
43.037727
 20
195.482937
 30
0.0
 11
43.037727
 21
223.601963
 31
0.0
210
0.0
220
0.0
230
1.0
  0
POLYLINE
  5
F1
100
AcDbEntity
  8
0
370
    13
390
0
 62
     7
100
AcDb2dPolyline
 66
     1
 10
0.0
 20
0.0
 30
0.0
 70
     1
 71
     3
  0
VERTEX
  5
F2
100
AcDbEntity
  8
0
370
     0
390
0
100
AcDbVertex
100
AcDb2dVertex
 10
43.255623
 20
223.601963
 30
0.0
  0
VERTEX
  5
F3
100
AcDbEntity
  8
0
370
     0
390
0
100
AcDbVertex
100
AcDb2dVertex
 10
43.037727
 20
226.092449
 30
0.0
  0
VERTEX
  5
F4
100
AcDbEntity
  8
0
370
     0
390
0
100
AcDbVertex
100
AcDb2dVertex
 10
42.819832
 20
223.601963
 30
0.0
  0
SEQEND
  5
F5
100
AcDbEntity
  8
0
370
     0
390
0
  0
POLYLINE
  5
F6
100
AcDbEntity
  8
0
370
    13
390
0
 62
     7
100
AcDb2dPolyline
 66
     1
 10
0.0
 20
0.0
 30
0.0
 70
     1
 71
     3
  0
VERTEX
  5
F7
100
AcDbEntity
  8
0
370
     0
390
0
100
AcDbVertex
100
AcDb2dVertex
 10
42.819832
 20
195.482937
 30
0.0
  0
VERTEX
  5
F8
100
AcDbEntity
  8
0
370
     0
390
0
100
AcDbVertex
100
AcDb2dVertex
 10
43.037727
 20
192.992451
 30
0.0
  0
VERTEX
  5
F9
100
AcDbEntity
  8
0
370
     0
390
0
100
AcDbVertex
100
AcDb2dVertex
 10
43.255623
 20
195.482937
 30
0.0
  0
SEQEND
  5
FA
100
AcDbEntity
  8
0
370
     0
390
0
  0
ENDBLK
  5
FB
100
AcDbEntity
  8
0
390
0
100
AcDbBlockEnd
  0
BLOCK
  5
FC
100
AcDbEntity
  8
0
370
     0
390
0
100
AcDbBlockBegin
  2
*D30
 70
    65
 10
0.0
 20
0.0
 30
0.0
  3
*D30
  1

  0
SOLID
  5
FD
100
AcDbEntity
  8
0
370
    13
390
0
 62
     7
100
AcDbTrace
 10
183.389956
 20
223.601963
 30
0.0
 11
183.172066
 21
226.092449
 31
0.0
 12
183.389956
 22
223.601963
 32
0.0
 13
182.954176
 23
223.601963
 33
0.0
  0
SOLID
  5
FE
100
AcDbEntity
  8
0
370
    13
390
0
 62
     7
100
AcDbTrace
 10
182.954176
 20
195.482937
 30
0.0
 11
183.172066
 21
192.992451
 31
0.0
 12
182.954176
 22
195.482937
 32
0.0
 13
183.389956
 23
195.482937
 33
0.0
  0
TEXT
  5
FF
100
AcDbEntity
  8
0
370
    13
390
0
 62
     7
100
AcDbText
 10
182.172067
 20
198.493456
 30
0.0
 40
3.0
  1
G1" ISO 228/1
 50
90.000003
 41
0.6
 72
     5
 11
182.172065
 21
220.591444
 31
0.0
100
AcDbText
  0
LINE
  5
100
100
AcDbEntity
  8
0
370
    13
390
0
 62
     7
 48
0.322188
100
AcDbLine
 10
171.284554
 20
192.992451
 30
0.0
 11
184.172066
 21
192.992451
 31
0.0
210
0.0
220
0.0
230
1.0
  0
LINE
  5
101
100
AcDbEntity
  8
0
370
    13
390
0
 62
     7
 48
0.322188
100
AcDbLine
 10
171.284554
 20
226.092449
 30
0.0
 11
184.172066
 21
226.092449
 31
0.0
210
0.0
220
0.0
230
1.0
  0
LINE
  5
102
100
AcDbEntity
  8
0
370
    13
390
0
 62
     7
100
AcDbLine
 10
183.172066
 20
195.482937
 30
0.0
 11
183.172066
 21
223.601963
 31
0.0
210
0.0
220
0.0
230
1.0
  0
POLYLINE
  5
103
100
AcDbEntity
  8
0
370
    13
390
0
 62
     7
100
AcDb2dPolyline
 66
     1
 10
0.0
 20
0.0
 30
0.0
 70
     1
 71
     3
  0
VERTEX
  5
104
100
AcDbEntity
  8
0
370
     0
390
0
100
AcDbVertex
100
AcDb2dVertex
 10
183.389956
 20
223.601963
 30
0.0
  0
VERTEX
  5
105
100
AcDbEntity
  8
0
370
     0
390
0
100
AcDbVertex
100
AcDb2dVertex
 10
183.172066
 20
226.092449
 30
0.0
  0
VERTEX
  5
106
100
AcDbEntity
  8
0
370
     0
390
0
100
AcDbVertex
100
AcDb2dVertex
 10
182.954176
 20
223.601963
 30
0.0
  0
SEQEND
  5
107
100
AcDbEntity
  8
0
370
     0
390
0
  0
POLYLINE
  5
108
100
AcDbEntity
  8
0
370
    13
390
0
 62
     7
100
AcDb2dPolyline
 66
     1
 10
0.0
 20
0.0
 30
0.0
 70
     1
 71
     3
  0
VERTEX
  5
109
100
AcDbEntity
  8
0
370
     0
390
0
100
AcDbVertex
100
AcDb2dVertex
 10
182.954176
 20
195.482937
 30
0.0
  0
VERTEX
  5
10A
100
AcDbEntity
  8
0
370
     0
390
0
100
AcDbVertex
100
AcDb2dVertex
 10
183.172066
 20
192.992451
 30
0.0
  0
VERTEX
  5
10B
100
AcDbEntity
  8
0
370
     0
390
0
100
AcDbVertex
100
AcDb2dVertex
 10
183.389956
 20
195.482937
 30
0.0
  0
SEQEND
  5
10C
100
AcDbEntity
  8
0
370
     0
390
0
  0
ENDBLK
  5
10D
100
AcDbEntity
  8
0
390
0
100
AcDbBlockEnd
  0
BLOCK
  5
10E
100
AcDbEntity
  8
0
370
     0
390
0
100
AcDbBlockBegin
  2
BLOCK29
 70
     0
 10
0.0
 20
0.0
 30
0.0
  3
BLOCK29
  1

  0
LINE
  5
10F
100
AcDbEntity
  8
0
370
    35
390
0
 62
     7
 48
0.066987
100
AcDbLine
 10
0.0
 20
-17.320508
 30
0.0
 11
0.0
 21
-20.0
 31
0.0
210
0.0
220
0.0
230
1.0
  0
LINE
  5
110
100
AcDbEntity
  8
0
370
    35
390
0
 62
     7
 48
0.172865
100
AcDbLine
 10
0.0
 20
-10.40592
 30
0.0
 11
0.0
 21
-17.320508
 31
0.0
210
0.0
220
0.0
230
1.0
  0
LINE
  5
111
100
AcDbEntity
  8
0
370
    35
390
0
 62
     7
 48
0.260148
100
AcDbLine
 10
0.0
 20
0.0
 30
0.0
 11
0.0
 21
-10.40592
 31
0.0
210
0.0
220
0.0
230
1.0
  0
LINE
  5
112
100
AcDbEntity
  8
0
370
    35
390
0
 62
     7
 48
0.433013
100
AcDbLine
 10
0.0
 20
17.320508
 30
0.0
 11
0.0
 21
0.0
 31
0.0
210
0.0
220
0.0
230
1.0
  0
LINE
  5
113
100
AcDbEntity
  8
0
370
    35
390
0
 62
     7
 48
0.066987
100
AcDbLine
 10
0.0
 20
20.0
 30
0.0
 11
0.0
 21
17.320508
 31
0.0
210
0.0
220
0.0
230
1.0
  0
LINE
  5
114
100
AcDbEntity
  8
0
370
    35
390
0
 62
     7
 48
0.066987
100
AcDbLine
 10
-120.0
 20
20.0
 30
0.0
 11
-120.0
 21
17.320508
 31
0.0
210
0.0
220
0.0
230
1.0
  0
LINE
  5
115
100
AcDbEntity
  8
0
370
    35
390
0
 62
     7
 48
0.433013
100
AcDbLine
 10
-120.0
 20
17.320508
 30
0.0
 11
-120.0
 21
0.0
 31
0.0
210
0.0
220
0.0
230
1.0
  0
LINE
  5
116
100
AcDbEntity
  8
0
370
    35
390
0
 62
     7
 48
0.433013
100
AcDbLine
 10
-120.0
 20
0.0
 30
0.0
 11
-120.0
 21
-17.320508
 31
0.0
210
0.0
220
0.0
230
1.0
  0
LINE
  5
117
100
AcDbEntity
  8
0
370
    35
390
0
 62
     7
 48
0.066848
100
AcDbLine
 10
-120.0
 20
-17.320508
 30
0.0
 11
-120.0
 21
-19.994431
 31
0.0
210
0.0
220
0.0
230
1.0
  0
LINE
  5
118
100
AcDbEntity
  8
0
370
    35
390
0
 62
     7
 48
0.000139
100
AcDbLine
 10
-120.0
 20
-19.994431
 30
0.0
 11
-120.0
 21
-20.0
 31
0.0
210
0.0
220
0.0
230
1.0
  0
LINE
  5
119
100
AcDbEntity
  8
0
370
    13
390
0
 62
     7
 48
0.263837
100
AcDbLine
 10
-12.585786
 20
-11.446513
 30
0.0
 11
-12.585786
 21
-22.0
 31
0.0
210
0.0
220
0.0
230
1.0
  0
LINE
  5
11A
100
AcDbEntity
  8
0
370
    13
390
0
 62
     7
 48
0.26735
100
AcDbLine
 10
-13.292893
 20
-11.598904
 30
0.0
 11
-13.292893
 21
-22.292893
 31
0.0
210
0.0
220
0.0
230
1.0
  0
LINE
  5
11B
100
AcDbEntity
  8
0
370
    13
390
0
 62
     7
100
AcDbLine
 10
-12.585786
 20
22.0
 30
0.0
 11
-12.585786
 21
-11.446513
 31
0.0
210
0.0
220
0.0
230
1.0
  0
LINE
  5
11C
100
AcDbEntity
  8
0
370
    13
390
0
 62
     7
100
AcDbLine
 10
-13.292893
 20
22.292893
 30
0.0
 11
-13.292893
 21
-11.598904
 31
0.0
210
0.0
220
0.0
230
1.0
  0
LINE
  5
11D
100
AcDbEntity
  8
0
370
    13
390
0
 62
     7
 48
0.305297
100
AcDbLine
 10
-16.457107
 20
-13.245231
 30
0.0
 11
-16.457107
 21
-25.457107
 31
0.0
210
0.0
220
0.0
230
1.0
  0
LINE
  5
11E
100
AcDbEntity
  8
0
370
    13
390
0
 62
     7
100
AcDbLine
 10
-16.457107
 20
25.457107
 30
0.0
 11
-16.457107
 21
-13.245231
 31
0.0
210
0.0
220
0.0
230
1.0
  0
LINE
  5
11F
100
AcDbEntity
  8
0
370
    13
390
0
 62
     7
 48
0.308809
100
AcDbLine
 10
-17.164214
 20
-13.397623
 30
0.0
 11
-17.164214
 21
-25.75
 31
0.0
210
0.0
220
0.0
230
1.0
  0
LINE
  5
120
100
AcDbEntity
  8
0
370
    13
390
0
 62
     7
100
AcDbLine
 10
-17.164214
 20
25.75
 30
0.0
 11
-17.164214
 21
-13.397623
 31
0.0
210
0.0
220
0.0
230
1.0
  0
LINE
  5
121
100
AcDbEntity
  8
0
370
    35
390
0
 62
     7
 48
0.308809
100
AcDbLine
 10
-28.25
 20
-13.397623
 30
0.0
 11
-28.25
 21
-25.75
 31
0.0
210
0.0
220
0.0
230
1.0
  0
LINE
  5
122
100
AcDbEntity
  8
0
370
    35
390
0
 62
     7
100
AcDbLine
 10
-28.25
 20
25.75
 30
0.0
 11
-28.25
 21
-13.397623
 31
0.0
210
0.0
220
0.0
230
1.0
  0
LINE
  5
123
100
AcDbEntity
  8
0
370
    35
390
0
 62
     7
 48
0.308809
100
AcDbLine
 10
-49.25
 20
-13.397623
 30
0.0
 11
-49.25
 21
-25.75
 31
0.0
210
0.0
220
0.0
230
1.0
  0
LINE
  5
124
100
AcDbEntity
  8
0
370
    13
390
0
 62
     7
 48
0.308809
100
AcDbLine
 10
-59.526646
 20
-13.397623
 30
0.0
 11
-59.526646
 21
-25.75
 31
0.0
210
0.0
220
0.0
230
1.0
  0
LINE
  5
125
100
AcDbEntity
  8
0
370
    35
390
0
 62
     7
100
AcDbLine
 10
-49.25
 20
25.75
 30
0.0
 11
-49.25
 21
-13.397623
 31
0.0
210
0.0
220
0.0
230
1.0
  0
LINE
  5
126
100
AcDbEntity
  8
0
370
    13
390
0
 62
     7
100
AcDbLine
 10
-59.526646
 20
25.75
 30
0.0
 11
-59.526646
 21
-13.397623
 31
0.0
210
0.0
220
0.0
230
1.0
  0
LINE
  5
127
100
AcDbEntity
  8
0
370
    13
390
0
 62
     7
 48
0.314806
100
AcDbLine
 10
-60.392672
 20
-13.657771
 30
0.0
 11
-60.392672
 21
-26.25
 31
0.0
210
0.0
220
0.0
230
1.0
  0
LINE
  5
128
100
AcDbEntity
  8
0
370
    13
390
0
 62
     7
100
AcDbLine
 10
-60.392672
 20
26.25
 30
0.0
 11
-60.392672
 21
-13.657771
 31
0.0
210
0.0
220
0.0
230
1.0
  0
LINE
  5
129
100
AcDbEntity
  8
0
370
    13
390
0
 62
     7
 48
0.352582
100
AcDbLine
 10
-62.211325
 20
-15.296703
 30
0.0
 11
-62.211325
 21
-29.4
 31
0.0
210
0.0
220
0.0
230
1.0
  0
LINE
  5
12A
100
AcDbEntity
  8
0
370
    13
390
0
 62
     7
100
AcDbLine
 10
-62.211325
 20
29.4
 30
0.0
 11
-62.211325
 21
-15.296703
 31
0.0
210
0.0
220
0.0
230
1.0
  0
LINE
  5
12B
100
AcDbEntity
  8
0
370
    13
390
0
 62
     7
 48
0.358579
100
AcDbLine
 10
-63.07735
 20
-15.556851
 30
0.0
 11
-63.07735
 21
-29.9
 31
0.0
210
0.0
220
0.0
230
1.0
  0
LINE
  5
12C
100
AcDbEntity
  8
0
370
    13
390
0
 62
     7
100
AcDbLine
 10
-63.07735
 20
29.9
 30
0.0
 11
-63.07735
 21
-15.556851
 31
0.0
210
0.0
220
0.0
230
1.0
  0
SPLINE
  5
12D
100
AcDbEntity
  8
0
370
    35
390
0
 62
     7
100
AcDbSpline
210
0.0
220
0.0
230
1.0
 70
     8
 71
     5
 72
    12
 73
     6
 74
     0
 42
0.0
 43
0.0
 40
0.0
 40
0.0
 40
0.0
 40
0.0
 40
0.0
 40
0.0
 40
44.053439357557167
 40
44.053439357557167
 40
44.053439357557167
 40
44.053439357557167
 40
44.053439357557167
 40
44.053439357557167
 10
-1.1547005383792555
 20
-21.903083770644624
 30
0.0
 10
-0.660190055978096
 20
-20.875093104314015
 30
0.0
 10
-0.323225615082167
 20
-19.93638171654009
 30
0.0
 10
-0.1077372030138715
 20
-19.048426116818334
 30
0.0
 10
-0.0000000028350435
 20
-18.184467130741872
 30
0.0
 10
-0.0000000000000002
 20
-17.320508104107027
 30
0.0
  0
LINE
  5
12E
100
AcDbEntity
  8
0
370
    35
390
0
 62
     7
 48
0.002423
100
AcDbLine
 10
-1.154701
 20
-21.903084
 30
0.0
 11
-1.154701
 21
-22.0
 31
0.0
210
0.0
220
0.0
230
1.0
  0
LINE
  5
12F
100
AcDbEntity
  8
0
370
    35
390
0
 62
     7
 48
0.032285
100
AcDbLine
 10
-1.154701
 20
-11.446513
 30
0.0
 11
-1.154701
 21
-12.737932
 31
0.0
210
0.0
220
0.0
230
1.0
  0
SPLINE
  5
130
100
AcDbEntity
  8
0
370
    35
390
0
 62
     7
100
AcDbSpline
210
0.0
220
0.0
230
1.0
 70
     8
 71
     4
 72
    10
 73
     5
 74
     0
 42
0.0
 43
0.0
 40
44.053439357557167
 40
44.053439357557167
 40
44.053439357557167
 40
44.053439357557167
 40
44.053439357557167
 40
88.10688072034246
 40
88.10688072034246
 40
88.10688072034246
 40
88.10688072034246
 40
88.10688072034246
 10
-0.0000000000000001
 20
-17.32050810410702
 30
0.0
 10
0.0000000035438043
 20
-16.240559271656263
 30
0.0
 10
-0.1802815204188242
 20
-15.159860361958863
 30
0.0
 10
-0.5365624072413429
 20
-14.022920772136402
 30
0.0
 10
-1.1547005383792559
 20
-12.737932380732927
 30
0.0
  0
LINE
  5
131
100
AcDbEntity
  8
0
370
    35
390
0
 62
     7
 48
0.002423
100
AcDbLine
 10
-1.154701
 20
22.0
 30
0.0
 11
-1.154701
 21
21.903084
 31
0.0
210
0.0
220
0.0
230
1.0
  0
SPLINE
  5
132
100
AcDbEntity
  8
0
370
    35
390
0
 62
     7
100
AcDbSpline
210
0.0
220
0.0
230
1.0
 70
     8
 71
     4
 72
    10
 73
     5
 74
     0
 42
0.0
 43
0.0
 40
44.053438547796738
 40
44.053438547796738
 40
44.053438547796738
 40
44.053438547796738
 40
44.053438547796738
 40
88.106880723458005
 40
88.106880723458005
 40
88.106880723458005
 40
88.106880723458005
 40
88.106880723458005
 10
-0.0000000000000007
 20
17.320507967384415
 30
0.0
 10
0.0000000135057419
 20
18.400456819762404
 30
0.0
 10
-0.1802815071794836
 20
19.481155747317271
 30
0.0
 10
-0.5365623958354306
 20
20.618095355530478
 30
0.0
 10
-1.1547005383792555
 20
21.903083770644628
 30
0.0
  0
SPLINE
  5
133
100
AcDbEntity
  8
0
370
    35
390
0
 62
     7
100
AcDbSpline
210
0.0
220
0.0
230
1.0
 70
     8
 71
     5
 72
    12
 73
     6
 74
     0
 42
0.0
 43
0.0
 40
0.0
 40
0.0
 40
0.0
 40
0.0
 40
0.0
 40
0.0
 40
44.053438547796738
 40
44.053438547796738
 40
44.053438547796738
 40
44.053438547796738
 40
44.053438547796738
 40
44.053438547796738
 10
-1.1547005383792555
 20
12.737932380732918
 30
0.0
 10
-0.6601900650678496
 20
13.765923028167702
 30
0.0
 10
-0.3232256274698653
 20
14.704634400287546
 30
0.0
 10
-0.1077372150522604
 20
15.592589985130143
 30
0.0
 10
-0.0000000108045936
 20
16.456548956630286
 30
0.0
 10
-0.0000000000000003
 20
17.320507967384422
 30
0.0
  0
LINE
  5
134
100
AcDbEntity
  8
0
370
    35
390
0
 62
     7
 48
0.08932
100
AcDbLine
 10
-1.154701
 20
12.737932
 30
0.0
 11
-1.154701
 21
9.165151
 31
0.0
210
0.0
220
0.0
230
1.0
  0
SPLINE
  5
135
100
AcDbEntity
  8
0
370
    35
390
0
 62
     7
100
AcDbSpline
210
0.0
220
0.0
230
1.0
 70
     8
 71
     4
 72
    10
 73
     5
 74
     0
 42
0.0
 43
0.0
 40
44.053439236868179
 40
44.053439236868179
 40
44.053439236868179
 40
44.053439236868179
 40
44.053439236868179
 40
88.106880741533857
 40
88.106880741533857
 40
88.106880741533857
 40
88.106880741533857
 40
88.106880741533857
 10
0.0000000000000001
 20
-0.0000000841208051
 30
0.0
 10
0.0000000052450061
 20
2.1598975877369639
 30
0.0
 10
-0.1802815182055496
 20
4.3212954130764931
 30
0.0
 10
-0.5365624052505409
 20
6.5951745988277963
 30
0.0
 10
-1.1547005383792555
 20
9.1651513899117152
 30
0.0
  0
LINE
  5
136
100
AcDbEntity
  8
0
370
    35
390
0
 62
     7
 48
0.057034
100
AcDbLine
 10
-1.154701
 20
-9.165151
 30
0.0
 11
-1.154701
 21
-11.446513
 31
0.0
210
0.0
220
0.0
230
1.0
  0
SPLINE
  5
137
100
AcDbEntity
  8
0
370
    35
390
0
 62
     7
100
AcDbSpline
210
0.0
220
0.0
230
1.0
 70
     8
 71
     5
 72
    12
 73
     6
 74
     0
 42
0.0
 43
0.0
 40
0.0
 40
0.0
 40
0.0
 40
0.0
 40
0.0
 40
0.0
 40
44.053439236868179
 40
44.053439236868179
 40
44.053439236868179
 40
44.053439236868179
 40
44.053439236868179
 40
44.053439236868179
 10
-1.1547005383792557
 20
-9.1651513899117063
 30
0.0
 10
-0.6601900573328579
 20
-7.1091700628830594
 30
0.0
 10
-0.3232256170631263
 20
-5.2317472921240826
 30
0.0
 10
-0.1077372053191854
 20
-3.455836100449718
 30
0.0
 10
-0.000000004196005
 20
-1.7279181326566857
 30
0.0
 10
0.0
 20
-0.0000000841208045
 30
0.0
  0
LINE
  5
138
100
AcDbEntity
  8
0
370
    35
390
0
 62
     7
 48
0.271132
100
AcDbLine
 10
-1.154701
 20
-12.737932
 30
0.0
 11
-12.0
 21
-12.737932
 31
0.0
210
0.0
220
0.0
230
1.0
  0
LINE
  5
139
100
AcDbEntity
  8
0
370
    35
390
0
 62
     7
 48
0.229129
100
AcDbLine
 10
-12.0
 20
-21.903084
 30
0.0
 11
-12.0
 21
-12.737932
 31
0.0
210
0.0
220
0.0
230
1.0
  0
LINE
  5
13A
100
AcDbEntity
  8
0
370
    35
390
0
 62
     7
 48
0.271132
100
AcDbLine
 10
-1.154701
 20
-21.903084
 30
0.0
 11
-12.0
 21
-21.903084
 31
0.0
210
0.0
220
0.0
230
1.0
  0
LINE
  5
13B
100
AcDbEntity
  8
0
370
    35
390
0
 62
     7
 48
0.271132
100
AcDbLine
 10
-1.154701
 20
9.165151
 30
0.0
 11
-12.0
 21
9.165151
 31
0.0
210
0.0
220
0.0
230
1.0
  0
LINE
  5
13C
100
AcDbEntity
  8
0
370
    35
390
0
 62
     7
 48
0.458258
100
AcDbLine
 10
-12.0
 20
-9.165151
 30
0.0
 11
-12.0
 21
9.165151
 31
0.0
210
0.0
220
0.0
230
1.0
  0
LINE
  5
13D
100
AcDbEntity
  8
0
370
    35
390
0
 62
     7
 48
0.271132
100
AcDbLine
 10
-1.154701
 20
-9.165151
 30
0.0
 11
-12.0
 21
-9.165151
 31
0.0
210
0.0
220
0.0
230
1.0
  0
LINE
  5
13E
100
AcDbEntity
  8
0
370
    35
390
0
 62
     7
 48
0.271132
100
AcDbLine
 10
-1.154701
 20
21.903084
 30
0.0
 11
-12.0
 21
21.903084
 31
0.0
210
0.0
220
0.0
230
1.0
  0
LINE
  5
13F
100
AcDbEntity
  8
0
370
    35
390
0
 62
     7
 48
0.229129
100
AcDbLine
 10
-12.0
 20
12.737932
 30
0.0
 11
-12.0
 21
21.903084
 31
0.0
210
0.0
220
0.0
230
1.0
  0
LINE
  5
140
100
AcDbEntity
  8
0
370
    35
390
0
 62
     7
 48
0.271132
100
AcDbLine
 10
-1.154701
 20
12.737932
 30
0.0
 11
-12.0
 21
12.737932
 31
0.0
210
0.0
220
0.0
230
1.0
  0
LINE
  5
141
100
AcDbEntity
  8
0
370
    13
390
0
 62
     7
100
AcDbLine
 10
-82.468911
 20
-30.491508
 30
0.0
 11
-82.468911
 21
30.5
 31
0.0
210
0.0
220
0.0
230
1.0
  0
LINE
  5
142
100
AcDbEntity
  8
0
370
    13
390
0
 62
     7
100
AcDbLine
 10
-83.334936
 20
-29.991647
 30
0.0
 11
-83.334936
 21
30.0
 31
0.0
210
0.0
220
0.0
230
1.0
  0
LINE
  5
143
100
AcDbEntity
  8
0
370
    13
390
0
 62
     7
 48
0.000212
100
AcDbLine
 10
-82.468911
 20
-30.5
 30
0.0
 11
-82.468911
 21
-30.491508
 31
0.0
210
0.0
220
0.0
230
1.0
  0
LINE
  5
144
100
AcDbEntity
  8
0
370
    13
390
0
 62
     7
 48
0.000209
100
AcDbLine
 10
-83.334936
 20
-30.0
 30
0.0
 11
-83.334936
 21
-29.991647
 31
0.0
210
0.0
220
0.0
230
1.0
  0
LINE
  5
145
100
AcDbEntity
  8
0
370
    13
390
0
 62
     7
100
AcDbLine
 10
-85.211325
 20
-26.742552
 30
0.0
 11
-85.211325
 21
26.75
 31
0.0
210
0.0
220
0.0
230
1.0
  0
LINE
  5
146
100
AcDbEntity
  8
0
370
    13
390
0
 62
     7
 48
0.000186
100
AcDbLine
 10
-85.211325
 20
-26.75
 30
0.0
 11
-85.211325
 21
-26.742552
 31
0.0
210
0.0
220
0.0
230
1.0
  0
LINE
  5
147
100
AcDbEntity
  8
0
370
    13
390
0
 62
     7
100
AcDbLine
 10
-86.07735
 20
-26.242691
 30
0.0
 11
-86.07735
 21
26.25
 31
0.0
210
0.0
220
0.0
230
1.0
  0
LINE
  5
148
100
AcDbEntity
  8
0
370
    13
390
0
 62
     7
 48
0.000183
100
AcDbLine
 10
-86.07735
 20
-26.25
 30
0.0
 11
-86.07735
 21
-26.242691
 31
0.0
210
0.0
220
0.0
230
1.0
  0
LINE
  5
149
100
AcDbEntity
  8
0
370
    13
390
0
 62
     7
100
AcDbLine
 10
-96.335786
 20
-26.242691
 30
0.0
 11
-96.335786
 21
26.25
 31
0.0
210
0.0
220
0.0
230
1.0
  0
LINE
  5
14A
100
AcDbEntity
  8
0
370
    13
390
0
 62
     7
 48
0.000183
100
AcDbLine
 10
-96.335786
 20
-26.25
 30
0.0
 11
-96.335786
 21
-26.242691
 31
0.0
210
0.0
220
0.0
230
1.0
  0
LINE
  5
14B
100
AcDbEntity
  8
0
370
    13
390
0
 62
     7
100
AcDbLine
 10
-97.042893
 20
-25.949879
 30
0.0
 11
-97.042893
 21
25.957107
 31
0.0
210
0.0
220
0.0
230
1.0
  0
LINE
  5
14C
100
AcDbEntity
  8
0
370
    13
390
0
 62
     7
 48
0.000181
100
AcDbLine
 10
-97.042893
 20
-25.957107
 30
0.0
 11
-97.042893
 21
-25.949879
 31
0.0
210
0.0
220
0.0
230
1.0
  0
LINE
  5
14D
100
AcDbEntity
  8
0
370
    13
390
0
 62
     7
100
AcDbLine
 10
-100.707107
 20
-22.286686
 30
0.0
 11
-100.707107
 21
22.292893
 31
0.0
210
0.0
220
0.0
230
1.0
  0
LINE
  5
14E
100
AcDbEntity
  8
0
370
    13
390
0
 62
     7
 48
0.000155
100
AcDbLine
 10
-100.707107
 20
-22.292893
 30
0.0
 11
-100.707107
 21
-22.286686
 31
0.0
210
0.0
220
0.0
230
1.0
  0
LINE
  5
14F
100
AcDbEntity
  8
0
370
    13
390
0
 62
     7
100
AcDbLine
 10
-101.414214
 20
-21.993874
 30
0.0
 11
-101.414214
 21
22.0
 31
0.0
210
0.0
220
0.0
230
1.0
  0
LINE
  5
150
100
AcDbEntity
  8
0
370
    13
390
0
 62
     7
 48
0.000153
100
AcDbLine
 10
-101.414214
 20
-22.0
 30
0.0
 11
-101.414214
 21
-21.993874
 31
0.0
210
0.0
220
0.0
230
1.0
  0
LINE
  5
151
100
AcDbEntity
  8
0
370
    35
390
0
 62
     7
100
AcDbLine
 10
-65.0
 20
-29.991647
 30
0.0
 11
-65.0
 21
30.0
 31
0.0
210
0.0
220
0.0
230
1.0
  0
LINE
  5
152
100
AcDbEntity
  8
0
370
    35
390
0
 62
     7
 48
0.000209
100
AcDbLine
 10
-65.0
 20
-30.0
 30
0.0
 11
-65.0
 21
-29.991647
 31
0.0
210
0.0
220
0.0
230
1.0
  0
LINE
  5
153
100
AcDbEntity
  8
0
370
    35
390
0
 62
     7
 48
0.000212
100
AcDbLine
 10
-65.5
 20
-30.491508
 30
0.0
 11
-65.5
 21
-30.5
 31
0.0
210
0.0
220
0.0
230
1.0
  0
LINE
  5
154
100
AcDbEntity
  8
0
370
    35
390
0
 62
     7
100
AcDbLine
 10
-65.5
 20
30.5
 30
0.0
 11
-65.5
 21
-30.491508
 31
0.0
210
0.0
220
0.0
230
1.0
  0
LINE
  5
155
100
AcDbEntity
  8
0
370
    35
390
0
 62
     7
 48
0.000153
100
AcDbLine
 10
-118.845299
 20
-22.0
 30
0.0
 11
-118.845299
 21
-21.993874
 31
0.0
210
0.0
220
0.0
230
1.0
  0
SPLINE
  5
156
100
AcDbEntity
  8
0
370
    35
390
0
 62
     7
100
AcDbSpline
210
0.0
220
0.0
230
1.0
 70
     8
 71
     4
 72
    10
 73
     5
 74
     0
 42
0.0
 43
0.0
 40
44.053438602339703
 40
44.053438602339703
 40
44.053438602339703
 40
44.053438602339703
 40
44.053438602339703
 40
88.10688073990309
 40
88.10688073990309
 40
88.10688073990309
 40
88.10688073990309
 40
88.10688073990309
 10
-120.00000000000001
 20
0.0000002075413399
 30
0.0
 10
-120.00000001294008
 20
-2.1598974953467756
 30
0.0
 10
-119.81971849196287
 20
-4.3212953480811205
 30
0.0
 10
-119.46343760362973
 20
-6.5951745619059583
 30
0.0
 10
-118.84529946162075
 20
-9.1651513899116797
 30
0.0
  0
LINE
  5
157
100
AcDbEntity
  8
0
370
    35
390
0
 62
     7
 48
0.08932
100
AcDbLine
 10
-118.845299
 20
-12.737932
 30
0.0
 11
-118.845299
 21
-9.165151
 31
0.0
210
0.0
220
0.0
230
1.0
  0
SPLINE
  5
158
100
AcDbEntity
  8
0
370
    35
390
0
 62
     7
100
AcDbSpline
210
0.0
220
0.0
230
1.0
 70
     8
 71
     5
 72
    12
 73
     6
 74
     0
 42
0.0
 43
0.0
 40
0.0
 40
0.0
 40
0.0
 40
0.0
 40
0.0
 40
0.0
 40
44.053438248017812
 40
44.053438248017812
 40
44.053438248017812
 40
44.053438248017812
 40
44.053438248017812
 40
44.053438248017812
 10
-118.84529946162077
 20
-12.737932380732918
 30
0.0
 10
-119.33980993156707
 20
-13.765923021172336
 30
0.0
 10
-119.67677436795087
 20
-14.704634387538819
 30
0.0
 10
-119.89226278074743
 20
-15.59258996753643
 30
0.0
 10
-119.99999998631915
 20
-16.456548933678288
 30
0.0
 10
-120.0
 20
-17.320507938553273
 30
0.0
  0
SPLINE
  5
159
100
AcDbEntity
  8
0
370
    35
390
0
 62
     7
100
AcDbSpline
210
0.0
220
0.0
230
1.0
 70
     8
 71
     4
 72
    10
 73
     5
 74
     0
 42
0.0
 43
0.0
 40
44.053439467988696
 40
44.053439467988696
 40
44.053439467988696
 40
44.053439467988696
 40
44.053439467988696
 40
88.106880738400321
 40
88.106880738400321
 40
88.106880738400321
 40
88.106880738400321
 40
88.106880738400321
 10
-120.0
 20
17.320508094866735
 30
0.0
 10
-120.00000000239146
 20
16.240559264680464
 30
0.0
 10
-119.81971847801844
 20
15.159860357126149
 30
0.0
 10
-119.46343759146251
 20
14.022920769441942
 30
0.0
 10
-118.84529946162077
 20
12.737932380732918
 30
0.0
  0
LINE
  5
15A
100
AcDbEntity
  8
0
370
    35
390
0
 62
     7
 48
0.08932
100
AcDbLine
 10
-118.845299
 20
9.165151
 30
0.0
 11
-118.845299
 21
12.737932
 31
0.0
210
0.0
220
0.0
230
1.0
  0
SPLINE
  5
15B
100
AcDbEntity
  8
0
370
    35
390
0
 62
     7
100
AcDbSpline
210
0.0
220
0.0
230
1.0
 70
     8
 71
     5
 72
    12
 73
     6
 74
     0
 42
0.0
 43
0.0
 40
0.0
 40
0.0
 40
0.0
 40
0.0
 40
0.0
 40
0.0
 40
44.053438602339703
 40
44.053438602339703
 40
44.053438602339703
 40
44.053438602339703
 40
44.053438602339703
 40
44.053438602339703
 10
-118.84529946162077
 20
9.1651513899117045
 30
0.0
 10
-119.33980993554442
 20
7.1091700924966093
 30
0.0
 10
-119.67677437338475
 20
5.2317473460727424
 30
0.0
 10
-119.89226278541024
 20
3.4558361762044076
 30
0.0
 10
-119.99999998964769
 20
1.7279182311889534
 30
0.0
 10
-120.00000000000003
 20
0.0000002075413382
 30
0.0
  0
SPLINE
  5
15C
100
AcDbEntity
  8
0
370
    35
390
0
 62
     7
100
AcDbSpline
210
0.0
220
0.0
230
1.0
 70
     8
 71
     5
 72
    12
 73
     6
 74
     0
 42
0.0
 43
0.0
 40
0.0
 40
0.0
 40
0.0
 40
0.0
 40
0.0
 40
0.0
 40
44.053439467988696
 40
44.053439467988696
 40
44.053439467988696
 40
44.053439467988696
 40
44.053439467988696
 40
44.053439467988696
 10
-118.84529946162075
 20
21.903083770644635
 30
0.0
 10
-119.33980994526154
 20
20.875093101737093
 30
0.0
 10
-119.67677438649947
 20
19.936381711887709
 30
0.0
 10
-119.89226279813906
 20
19.048426111769004
 30
0.0
 10
-119.99999999808676
 20
18.184467123667318
 30
0.0
 10
-120.0
 20
17.320508094866732
 30
0.0
  0
LINE
  5
15D
100
AcDbEntity
  8
0
370
    35
390
0
 62
     7
 48
0.002423
100
AcDbLine
 10
-118.845299
 20
21.903084
 30
0.0
 11
-118.845299
 21
22.0
 31
0.0
210
0.0
220
0.0
230
1.0
  0
SPLINE
  5
15E
100
AcDbEntity
  8
0
370
    35
390
0
 62
     7
100
AcDbSpline
210
0.0
220
0.0
230
1.0
 70
     8
 71
     4
 72
    10
 73
     5
 74
     0
 42
0.0
 43
0.0
 40
44.053438248017812
 40
44.053438248017812
 40
44.053438248017812
 40
44.053438248017812
 40
44.053438248017812
 40
88.106880709770635
 40
88.106880709770635
 40
88.106880709770635
 40
88.106880709770635
 40
88.106880709770635
 10
-120.00000000000001
 20
-17.32050793855327
 30
0.0
 10
-120.00000001710106
 20
-18.400456797944678
 30
0.0
 10
-119.81971849764756
 20
-19.481155732091143
 30
0.0
 10
-119.46343760817888
 20
-20.618095347185537
 30
0.0
 10
-118.84529946162075
 20
-21.903083770644621
 30
0.0
  0
LINE
  5
15F
100
AcDbEntity
  8
0
370
    35
390
0
 62
     7
 48
0.00227
100
AcDbLine
 10
-118.845299
 20
-21.993874
 30
0.0
 11
-118.845299
 21
-21.903084
 31
0.0
210
0.0
220
0.0
230
1.0
  0
LINE
  5
160
100
AcDbEntity
  8
0
370
    35
390
0
 62
     7
 48
0.271132
100
AcDbLine
 10
-108.0
 20
9.165151
 30
0.0
 11
-118.845299
 21
9.165151
 31
0.0
210
0.0
220
0.0
230
1.0
  0
LINE
  5
161
100
AcDbEntity
  8
0
370
    35
390
0
 62
     7
 48
0.458258
100
AcDbLine
 10
-108.0
 20
9.165151
 30
0.0
 11
-108.0
 21
-9.165151
 31
0.0
210
0.0
220
0.0
230
1.0
  0
LINE
  5
162
100
AcDbEntity
  8
0
370
    35
390
0
 62
     7
 48
0.271132
100
AcDbLine
 10
-118.845299
 20
-9.165151
 30
0.0
 11
-108.0
 21
-9.165151
 31
0.0
210
0.0
220
0.0
230
1.0
  0
LINE
  5
163
100
AcDbEntity
  8
0
370
    35
390
0
 62
     7
 48
0.271132
100
AcDbLine
 10
-118.845299
 20
-12.737932
 30
0.0
 11
-108.0
 21
-12.737932
 31
0.0
210
0.0
220
0.0
230
1.0
  0
LINE
  5
164
100
AcDbEntity
  8
0
370
    35
390
0
 62
     7
 48
0.229129
100
AcDbLine
 10
-108.0
 20
-12.737932
 30
0.0
 11
-108.0
 21
-21.903084
 31
0.0
210
0.0
220
0.0
230
1.0
  0
LINE
  5
165
100
AcDbEntity
  8
0
370
    35
390
0
 62
     7
 48
0.271132
100
AcDbLine
 10
-118.845299
 20
-21.903084
 30
0.0
 11
-108.0
 21
-21.903084
 31
0.0
210
0.0
220
0.0
230
1.0
  0
LINE
  5
166
100
AcDbEntity
  8
0
370
    35
390
0
 62
     7
 48
0.271132
100
AcDbLine
 10
-118.845299
 20
21.903084
 30
0.0
 11
-108.0
 21
21.903084
 31
0.0
210
0.0
220
0.0
230
1.0
  0
LINE
  5
167
100
AcDbEntity
  8
0
370
    35
390
0
 62
     7
 48
0.229129
100
AcDbLine
 10
-108.0
 20
21.903084
 30
0.0
 11
-108.0
 21
12.737932
 31
0.0
210
0.0
220
0.0
230
1.0
  0
LINE
  5
168
100
AcDbEntity
  8
0
370
    35
390
0
 62
     7
 48
0.271132
100
AcDbLine
 10
-118.845299
 20
12.737932
 30
0.0
 11
-108.0
 21
12.737932
 31
0.0
210
0.0
220
0.0
230
1.0
  0
ARC
  5
169
100
AcDbEntity
  8
0
370
    35
390
0
 62
     7
100
AcDbCircle
 10
-12.585786
 20
-23.0
 30
0.0
 40
1.0
210
0.0
220
0.0
230
1.0
100
AcDbArc
 50
90.0
 51
135.0
  0
ARC
  5
16A
100
AcDbEntity
  8
0
370
    35
390
0
 62
     7
100
AcDbCircle
 10
-12.585786
 20
23.0
 30
0.0
 40
1.0
210
0.0
220
0.0
230
1.0
100
AcDbArc
 50
225.0
 51
270.0
  0
LINE
  5
16B
100
AcDbEntity
  8
0
370
    35
390
0
 62
     7
 48
0.111872
100
AcDbLine
 10
-13.292893
 20
-22.292893
 30
0.0
 11
-16.457107
 21
-25.457107
 31
0.0
210
0.0
220
0.0
230
1.0
  0
LINE
  5
16C
100
AcDbEntity
  8
0
370
    35
390
0
 62
     7
 48
0.111872
100
AcDbLine
 10
-13.292893
 20
22.292893
 30
0.0
 11
-16.457107
 21
25.457107
 31
0.0
210
0.0
220
0.0
230
1.0
  0
ARC
  5
16D
100
AcDbEntity
  8
0
370
    35
390
0
 62
     7
100
AcDbCircle
 10
-17.164214
 20
-24.75
 30
0.0
 40
1.0
210
0.0
220
0.0
230
1.0
100
AcDbArc
 50
270.0
 51
315.0
  0
ARC
  5
16E
100
AcDbEntity
  8
0
370
    35
390
0
 62
     7
100
AcDbCircle
 10
-17.164214
 20
24.75
 30
0.0
 40
1.0
210
0.0
220
0.0
230
1.0
100
AcDbArc
 50
45.0
 51
90.0
  0
LINE
  5
16F
100
AcDbEntity
  8
0
370
    35
390
0
 62
     7
 48
0.277145
100
AcDbLine
 10
-17.164214
 20
-25.75
 30
0.0
 11
-28.25
 21
-25.75
 31
0.0
210
0.0
220
0.0
230
1.0
  0
LINE
  5
170
100
AcDbEntity
  8
0
370
    35
390
0
 62
     7
 48
0.277145
100
AcDbLine
 10
-17.164214
 20
25.75
 30
0.0
 11
-28.25
 21
25.75
 31
0.0
210
0.0
220
0.0
230
1.0
  0
LINE
  5
171
100
AcDbEntity
  8
0
370
    35
390
0
 62
     7
100
AcDbLine
 10
-28.25
 20
-25.45
 30
0.0
 11
-49.25
 21
-25.45
 31
0.0
210
0.0
220
0.0
230
1.0
  0
LINE
  5
172
100
AcDbEntity
  8
0
370
    35
390
0
 62
     7
100
AcDbLine
 10
-28.25
 20
25.45
 30
0.0
 11
-49.25
 21
25.45
 31
0.0
210
0.0
220
0.0
230
1.0
  0
LINE
  5
173
100
AcDbEntity
  8
0
370
    35
390
0
 62
     7
 48
0.256916
100
AcDbLine
 10
-49.25
 20
-25.75
 30
0.0
 11
-59.526646
 21
-25.75
 31
0.0
210
0.0
220
0.0
230
1.0
  0
LINE
  5
174
100
AcDbEntity
  8
0
370
    35
390
0
 62
     7
 48
0.256916
100
AcDbLine
 10
-49.25
 20
25.75
 30
0.0
 11
-59.526646
 21
25.75
 31
0.0
210
0.0
220
0.0
230
1.0
  0
ARC
  5
175
100
AcDbEntity
  8
0
370
    35
390
0
 62
     7
100
AcDbCircle
 10
-59.526646
 20
-26.75
 30
0.0
 40
1.0
210
0.0
220
0.0
230
1.0
100
AcDbArc
 50
90.0
 51
150.0
  0
ARC
  5
176
100
AcDbEntity
  8
0
370
    35
390
0
 62
     7
100
AcDbCircle
 10
-59.526646
 20
26.75
 30
0.0
 40
1.0
210
0.0
220
0.0
230
1.0
100
AcDbArc
 50
210.0
 51
270.0
  0
LINE
  5
177
100
AcDbEntity
  8
0
370
    35
390
0
 62
     7
 48
0.090933
100
AcDbLine
 10
-60.392672
 20
-26.25
 30
0.0
 11
-62.211325
 21
-29.4
 31
0.0
210
0.0
220
0.0
230
1.0
  0
LINE
  5
178
100
AcDbEntity
  8
0
370
    35
390
0
 62
     7
 48
0.090933
100
AcDbLine
 10
-60.392672
 20
26.25
 30
0.0
 11
-62.211325
 21
29.4
 31
0.0
210
0.0
220
0.0
230
1.0
  0
ARC
  5
179
100
AcDbEntity
  8
0
370
    35
390
0
 62
     7
100
AcDbCircle
 10
-63.07735
 20
-28.9
 30
0.0
 40
1.0
210
0.0
220
0.0
230
1.0
100
AcDbArc
 50
270.0
 51
330.0
  0
ARC
  5
17A
100
AcDbEntity
  8
0
370
    35
390
0
 62
     7
100
AcDbCircle
 10
-63.07735
 20
28.9
 30
0.0
 40
1.0
210
0.0
220
0.0
230
1.0
100
AcDbArc
 50
30.0
 51
90.0
  0
LINE
  5
17B
100
AcDbEntity
  8
0
370
    35
390
0
 62
     7
 48
0.048066
100
AcDbLine
 10
-63.07735
 20
-29.9
 30
0.0
 11
-65.0
 21
-29.9
 31
0.0
210
0.0
220
0.0
230
1.0
  0
LINE
  5
17C
100
AcDbEntity
  8
0
370
    35
390
0
 62
     7
 48
0.048066
100
AcDbLine
 10
-63.07735
 20
29.9
 30
0.0
 11
-65.0
 21
29.9
 31
0.0
210
0.0
220
0.0
230
1.0
  0
LINE
  5
17D
100
AcDbEntity
  8
0
370
    35
390
0
 62
     7
 48
0.057735
100
AcDbLine
 10
0.0
 20
-20.0
 30
0.0
 11
-1.154701
 21
-22.0
 31
0.0
210
0.0
220
0.0
230
1.0
  0
LINE
  5
17E
100
AcDbEntity
  8
0
370
    35
390
0
 62
     7
 48
0.057735
100
AcDbLine
 10
0.0
 20
20.0
 30
0.0
 11
-1.154701
 21
22.0
 31
0.0
210
0.0
220
0.0
230
1.0
  0
LINE
  5
17F
100
AcDbEntity
  8
0
370
    35
390
0
 62
     7
 48
0.285777
100
AcDbLine
 10
-1.154701
 20
-22.0
 30
0.0
 11
-12.585786
 21
-22.0
 31
0.0
210
0.0
220
0.0
230
1.0
  0
LINE
  5
180
100
AcDbEntity
  8
0
370
    35
390
0
 62
     7
 48
0.285777
100
AcDbLine
 10
-1.154701
 20
22.0
 30
0.0
 11
-12.585786
 21
22.0
 31
0.0
210
0.0
220
0.0
230
1.0
  0
ARC
  5
181
100
AcDbEntity
  8
0
370
    35
390
0
 62
     7
100
AcDbCircle
 10
-82.468911
 20
29.5
 30
0.0
 40
1.0
210
0.0
220
0.0
230
1.0
100
AcDbArc
 50
90.000003
 51
149.999996
  0
ARC
  5
182
100
AcDbEntity
  8
0
370
    35
390
0
 62
     7
100
AcDbCircle
 10
-82.468911
 20
-29.5
 30
0.0
 40
1.0
210
0.0
220
0.0
230
1.0
100
AcDbArc
 50
210.000004
 51
269.999997
  0
LINE
  5
183
100
AcDbEntity
  8
0
370
    35
390
0
 62
     7
 48
0.093819
100
AcDbLine
 10
-85.211325
 20
26.75
 30
0.0
 11
-83.334936
 21
30.0
 31
0.0
210
0.0
220
0.0
230
1.0
  0
LINE
  5
184
100
AcDbEntity
  8
0
370
    35
390
0
 62
     7
 48
0.093819
100
AcDbLine
 10
-85.211325
 20
-26.75
 30
0.0
 11
-83.334936
 21
-30.0
 31
0.0
210
0.0
220
0.0
230
1.0
  0
ARC
  5
185
100
AcDbEntity
  8
0
370
    35
390
0
 62
     7
100
AcDbCircle
 10
-86.07735
 20
27.25
 30
0.0
 40
1.0
210
0.0
220
0.0
230
1.0
100
AcDbArc
 50
269.999998
 51
330.000001
  0
ARC
  5
186
100
AcDbEntity
  8
0
370
    35
390
0
 62
     7
100
AcDbCircle
 10
-86.07735
 20
-27.25
 30
0.0
 40
1.0
210
0.0
220
0.0
230
1.0
100
AcDbArc
 50
29.999999
 51
90.000002
  0
LINE
  5
187
100
AcDbEntity
  8
0
370
    35
390
0
 62
     7
 48
0.256461
100
AcDbLine
 10
-96.335786
 20
26.25
 30
0.0
 11
-86.07735
 21
26.25
 31
0.0
210
0.0
220
0.0
230
1.0
  0
LINE
  5
188
100
AcDbEntity
  8
0
370
    35
390
0
 62
     7
 48
0.256461
100
AcDbLine
 10
-96.335786
 20
-26.25
 30
0.0
 11
-86.07735
 21
-26.25
 31
0.0
210
0.0
220
0.0
230
1.0
  0
ARC
  5
189
100
AcDbEntity
  8
0
370
    35
390
0
 62
     7
100
AcDbCircle
 10
-96.335786
 20
25.25
 30
0.0
 40
1.0
210
0.0
220
0.0
230
1.0
100
AcDbArc
 50
90.000005
 51
134.999995
  0
ARC
  5
18A
100
AcDbEntity
  8
0
370
    35
390
0
 62
     7
100
AcDbCircle
 10
-96.335786
 20
-25.25
 30
0.0
 40
1.0
210
0.0
220
0.0
230
1.0
100
AcDbArc
 50
225.000005
 51
269.999995
  0
LINE
  5
18B
100
AcDbEntity
  8
0
370
    35
390
0
 62
     7
 48
0.12955
100
AcDbLine
 10
-100.707107
 20
22.292893
 30
0.0
 11
-97.042893
 21
25.957107
 31
0.0
210
0.0
220
0.0
230
1.0
  0
LINE
  5
18C
100
AcDbEntity
  8
0
370
    35
390
0
 62
     7
 48
0.12955
100
AcDbLine
 10
-100.707107
 20
-22.292893
 30
0.0
 11
-97.042893
 21
-25.957107
 31
0.0
210
0.0
220
0.0
230
1.0
  0
ARC
  5
18D
100
AcDbEntity
  8
0
370
    35
390
0
 62
     7
100
AcDbCircle
 10
-101.414214
 20
23.0
 30
0.0
 40
1.0
210
0.0
220
0.0
230
1.0
100
AcDbArc
 50
269.999997
 51
315.000002
  0
ARC
  5
18E
100
AcDbEntity
  8
0
370
    35
390
0
 62
     7
100
AcDbCircle
 10
-101.414214
 20
-23.0
 30
0.0
 40
1.0
210
0.0
220
0.0
230
1.0
100
AcDbArc
 50
44.999998
 51
90.000003
  0
LINE
  5
18F
100
AcDbEntity
  8
0
370
    35
390
0
 62
     7
 48
0.424223
100
AcDbLine
 10
-82.468911
 20
-30.5
 30
0.0
 11
-65.5
 21
-30.5
 31
0.0
210
0.0
220
0.0
230
1.0
  0
LINE
  5
190
100
AcDbEntity
  8
0
370
    35
390
0
 62
     7
 48
0.424223
100
AcDbLine
 10
-82.468911
 20
30.5
 30
0.0
 11
-65.5
 21
30.5
 31
0.0
210
0.0
220
0.0
230
1.0
  0
LINE
  5
191
100
AcDbEntity
  8
0
370
    35
390
0
 62
     7
 48
0.017678
100
AcDbLine
 10
-65.0
 20
-30.0
 30
0.0
 11
-65.5
 21
-30.5
 31
0.0
210
0.0
220
0.0
230
1.0
  0
LINE
  5
192
100
AcDbEntity
  8
0
370
    35
390
0
 62
     7
 48
0.017678
100
AcDbLine
 10
-65.0
 20
30.0
 30
0.0
 11
-65.5
 21
30.5
 31
0.0
210
0.0
220
0.0
230
1.0
  0
LINE
  5
193
100
AcDbEntity
  8
0
370
    35
390
0
 62
     7
 48
0.057735
100
AcDbLine
 10
-120.0
 20
-20.0
 30
0.0
 11
-118.845299
 21
-22.0
 31
0.0
210
0.0
220
0.0
230
1.0
  0
LINE
  5
194
100
AcDbEntity
  8
0
370
    35
390
0
 62
     7
 48
0.057735
100
AcDbLine
 10
-120.0
 20
20.0
 30
0.0
 11
-118.845299
 21
22.0
 31
0.0
210
0.0
220
0.0
230
1.0
  0
LINE
  5
195
100
AcDbEntity
  8
0
370
    35
390
0
 62
     7
 48
0.435777
100
AcDbLine
 10
-118.845299
 20
22.0
 30
0.0
 11
-101.414214
 21
22.0
 31
0.0
210
0.0
220
0.0
230
1.0
  0
LINE
  5
196
100
AcDbEntity
  8
0
370
    35
390
0
 62
     7
 48
0.435777
100
AcDbLine
 10
-118.845299
 20
-22.0
 30
0.0
 11
-101.414214
 21
-22.0
 31
0.0
210
0.0
220
0.0
230
1.0
  0
ENDBLK
  5
197
100
AcDbEntity
  8
0
390
0
100
AcDbBlockEnd
  0
BLOCK
  5
198
100
AcDbEntity
  8
0
370
     0
390
0
100
AcDbBlockBegin
  2
*D32
 70
    65
 10
0.0
 20
0.0
 30
0.0
  3
*D32
  1

  0
SOLID
  5
199
100
AcDbEntity
  8
0
370
    13
390
0
 62
     7
100
AcDbTrace
 10
43.255623
 20
137.901787
 30
0.0
 11
43.037727
 21
140.392273
 31
0.0
 12
43.255623
 22
137.901787
 32
0.0
 13
42.819832
 23
137.901787
 33
0.0
  0
SOLID
  5
19A
100
AcDbEntity
  8
0
370
    13
390
0
 62
     7
100
AcDbTrace
 10
42.819832
 20
102.882759
 30
0.0
 11
43.037727
 21
100.392273
 31
0.0
 12
42.819832
 22
102.882759
 32
0.0
 13
43.255623
 23
102.882759
 33
0.0
  0
TEXT
  5
19B
100
AcDbEntity
  8
0
370
    13
390
0
 62
     7
100
AcDbText
 10
42.037727
 20
118.755889
 30
0.0
 40
3.0
  1
40
 50
90.000003
 41
0.6
 72
     5
 11
42.037727
 21
122.028656
 31
0.0
100
AcDbText
  0
TEXT
  5
19C
100
AcDbEntity
  8
0
370
    13
390
0
 62
     7
100
AcDbText
 10
42.037727
 20
107.637589
 30
0.0
 40
3.0
  1
Es.Ch.
 50
90.000003
 41
0.6
 72
     5
 11
42.037727
 21
117.755889
 31
0.0
100
AcDbText
  0
TEXT
  5
19D
100
AcDbEntity
  8
0
370
    13
390
0
 62
     7
100
AcDbText
 10
42.037727
 20
123.028656
 30
0.0
 40
3.0
  1
( \U+00D844 )
 50
90.000003
 41
0.6
 72
     5
 11
42.037727
 21
134.858341
 31
0.0
100
AcDbText
  0
LINE
  5
19E
100
AcDbEntity
  8
0
370
    13
390
0
 62
     7
 48
0.260038
100
AcDbLine
 10
52.439255
 20
100.392273
 30
0.0
 11
42.037727
 21
100.392273
 31
0.0
210
0.0
220
0.0
230
1.0
  0
LINE
  5
19F
100
AcDbEntity
  8
0
370
    13
390
0
 62
     7
 48
0.260038
100
AcDbLine
 10
52.439255
 20
140.392273
 30
0.0
 11
42.037727
 21
140.392273
 31
0.0
210
0.0
220
0.0
230
1.0
  0
LINE
  5
1A0
100
AcDbEntity
  8
0
370
    13
390
0
 62
     7
100
AcDbLine
 10
43.037727
 20
102.882759
 30
0.0
 11
43.037727
 21
137.901787
 31
0.0
210
0.0
220
0.0
230
1.0
  0
POLYLINE
  5
1A1
100
AcDbEntity
  8
0
370
    13
390
0
 62
     7
100
AcDb2dPolyline
 66
     1
 10
0.0
 20
0.0
 30
0.0
 70
     1
 71
     3
  0
VERTEX
  5
1A2
100
AcDbEntity
  8
0
370
     0
390
0
100
AcDbVertex
100
AcDb2dVertex
 10
43.255623
 20
137.901787
 30
0.0
  0
VERTEX
  5
1A3
100
AcDbEntity
  8
0
370
     0
390
0
100
AcDbVertex
100
AcDb2dVertex
 10
43.037727
 20
140.392273
 30
0.0
  0
VERTEX
  5
1A4
100
AcDbEntity
  8
0
370
     0
390
0
100
AcDbVertex
100
AcDb2dVertex
 10
42.819832
 20
137.901787
 30
0.0
  0
SEQEND
  5
1A5
100
AcDbEntity
  8
0
370
     0
390
0
  0
POLYLINE
  5
1A6
100
AcDbEntity
  8
0
370
    13
390
0
 62
     7
100
AcDb2dPolyline
 66
     1
 10
0.0
 20
0.0
 30
0.0
 70
     1
 71
     3
  0
VERTEX
  5
1A7
100
AcDbEntity
  8
0
370
     0
390
0
100
AcDbVertex
100
AcDb2dVertex
 10
42.819832
 20
102.882759
 30
0.0
  0
VERTEX
  5
1A8
100
AcDbEntity
  8
0
370
     0
390
0
100
AcDbVertex
100
AcDb2dVertex
 10
43.037727
 20
100.392273
 30
0.0
  0
VERTEX
  5
1A9
100
AcDbEntity
  8
0
370
     0
390
0
100
AcDbVertex
100
AcDb2dVertex
 10
43.255623
 20
102.882759
 30
0.0
  0
SEQEND
  5
1AA
100
AcDbEntity
  8
0
370
     0
390
0
  0
ENDBLK
  5
1AB
100
AcDbEntity
  8
0
390
0
100
AcDbBlockEnd
  0
BLOCK
  5
1AC
100
AcDbEntity
  8
0
370
     0
390
0
100
AcDbBlockBegin
  2
*D33
 70
    65
 10
0.0
 20
0.0
 30
0.0
  3
*D33
  1

  0
SOLID
  5
1AD
100
AcDbEntity
  8
0
370
    13
390
0
 62
     7
100
AcDbTrace
 10
183.389956
 20
137.901787
 30
0.0
 11
183.172066
 21
140.392273
 31
0.0
 12
183.389956
 22
137.901787
 32
0.0
 13
182.954176
 23
137.901787
 33
0.0
  0
SOLID
  5
1AE
100
AcDbEntity
  8
0
370
    13
390
0
 62
     7
100
AcDbTrace
 10
182.954176
 20
102.882759
 30
0.0
 11
183.172066
 21
100.392273
 31
0.0
 12
182.954176
 22
102.882759
 32
0.0
 13
183.389956
 23
102.882759
 33
0.0
  0
TEXT
  5
1AF
100
AcDbEntity
  8
0
370
    13
390
0
 62
     7
100
AcDbText
 10
182.172066
 20
118.755889
 30
0.0
 40
3.0
  1
40
 50
90.000003
 41
0.6
 72
     5
 11
182.172066
 21
122.028656
 31
0.0
100
AcDbText
  0
TEXT
  5
1B0
100
AcDbEntity
  8
0
370
    13
390
0
 62
     7
100
AcDbText
 10
182.172066
 20
107.637589
 30
0.0
 40
3.0
  1
Es.Ch.
 50
90.000003
 41
0.6
 72
     5
 11
182.172066
 21
117.755889
 31
0.0
100
AcDbText
  0
TEXT
  5
1B1
100
AcDbEntity
  8
0
370
    13
390
0
 62
     7
100
AcDbText
 10
182.172066
 20
123.028656
 30
0.0
 40
3.0
  1
( \U+00D844 )
 50
90.000003
 41
0.6
 72
     5
 11
182.172066
 21
134.858341
 31
0.0
100
AcDbText
  0
LINE
  5
1B2
100
AcDbEntity
  8
0
370
    13
390
0
 62
     7
 48
0.351055
100
AcDbLine
 10
170.129853
 20
100.392273
 30
0.0
 11
184.172066
 21
100.392273
 31
0.0
210
0.0
220
0.0
230
1.0
  0
LINE
  5
1B3
100
AcDbEntity
  8
0
370
    13
390
0
 62
     7
 48
0.351055
100
AcDbLine
 10
170.129853
 20
140.392273
 30
0.0
 11
184.172066
 21
140.392273
 31
0.0
210
0.0
220
0.0
230
1.0
  0
LINE
  5
1B4
100
AcDbEntity
  8
0
370
    13
390
0
 62
     7
100
AcDbLine
 10
183.172066
 20
102.882759
 30
0.0
 11
183.172066
 21
137.901787
 31
0.0
210
0.0
220
0.0
230
1.0
  0
POLYLINE
  5
1B5
100
AcDbEntity
  8
0
370
    13
390
0
 62
     7
100
AcDb2dPolyline
 66
     1
 10
0.0
 20
0.0
 30
0.0
 70
     1
 71
     3
  0
VERTEX
  5
1B6
100
AcDbEntity
  8
0
370
     0
390
0
100
AcDbVertex
100
AcDb2dVertex
 10
183.389956
 20
137.901787
 30
0.0
  0
VERTEX
  5
1B7
100
AcDbEntity
  8
0
370
     0
390
0
100
AcDbVertex
100
AcDb2dVertex
 10
183.172066
 20
140.392273
 30
0.0
  0
VERTEX
  5
1B8
100
AcDbEntity
  8
0
370
     0
390
0
100
AcDbVertex
100
AcDb2dVertex
 10
182.954176
 20
137.901787
 30
0.0
  0
SEQEND
  5
1B9
100
AcDbEntity
  8
0
370
     0
390
0
  0
POLYLINE
  5
1BA
100
AcDbEntity
  8
0
370
    13
390
0
 62
     7
100
AcDb2dPolyline
 66
     1
 10
0.0
 20
0.0
 30
0.0
 70
     1
 71
     3
  0
VERTEX
  5
1BB
100
AcDbEntity
  8
0
370
     0
390
0
100
AcDbVertex
100
AcDb2dVertex
 10
182.954176
 20
102.882759
 30
0.0
  0
VERTEX
  5
1BC
100
AcDbEntity
  8
0
370
     0
390
0
100
AcDbVertex
100
AcDb2dVertex
 10
183.172066
 20
100.392273
 30
0.0
  0
VERTEX
  5
1BD
100
AcDbEntity
  8
0
370
     0
390
0
100
AcDbVertex
100
AcDb2dVertex
 10
183.389956
 20
102.882759
 30
0.0
  0
SEQEND
  5
1BE
100
AcDbEntity
  8
0
370
     0
390
0
  0
ENDBLK
  5
1BF
100
AcDbEntity
  8
0
390
0
100
AcDbBlockEnd
  0
BLOCK
  5
1C0
100
AcDbEntity
  8
0
370
     0
390
0
100
AcDbBlockBegin
  2
*D34
 70
    65
 10
0.0
 20
0.0
 30
0.0
  3
*D34
  1

  0
SOLID
  5
1C1
100
AcDbEntity
  8
0
370
    13
390
0
 62
     7
100
AcDbTrace
 10
33.930534
 20
148.401787
 30
0.0
 11
33.712639
 21
150.892273
 31
0.0
 12
33.930534
 22
148.401787
 32
0.0
 13
33.494743
 23
148.401787
 33
0.0
  0
SOLID
  5
1C2
100
AcDbEntity
  8
0
370
    13
390
0
 62
     7
100
AcDbTrace
 10
33.494743
 20
92.382759
 30
0.0
 11
33.712639
 21
89.892273
 31
0.0
 12
33.494743
 22
92.382759
 32
0.0
 13
33.930534
 23
92.382759
 33
0.0
  0
TEXT
  5
1C3
100
AcDbEntity
  8
0
370
    13
390
0
 62
     7
100
AcDbText
 10
32.712639
 20
119.91589
 30
0.0
 40
3.0
  1
61
 50
90.000003
 41
0.6
 72
     5
 11
32.712639
 21
123.188657
 31
0.0
100
AcDbText
  0
TEXT
  5
1C4
100
AcDbEntity
  8
0
370
    13
390
0
 62
     7
100
AcDbText
 10
32.712639
 20
117.595889
 30
0.0
 40
3.0
  1
%%c
 50
90.000003
 41
0.6
 72
     5
 11
32.712639
 21
118.91589
 31
0.0
100
AcDbText
  0
LINE
  5
1C5
100
AcDbEntity
  8
0
370
    13
390
0
 62
     7
100
AcDbLine
 10
88.815643
 20
89.892273
 30
0.0
 11
32.712639
 21
89.892273
 31
0.0
210
0.0
220
0.0
230
1.0
  0
LINE
  5
1C6
100
AcDbEntity
  8
0
370
    13
390
0
 62
     7
100
AcDbLine
 10
88.815643
 20
150.892273
 30
0.0
 11
32.712639
 21
150.892273
 31
0.0
210
0.0
220
0.0
230
1.0
  0
LINE
  5
1C7
100
AcDbEntity
  8
0
370
    13
390
0
 62
     7
100
AcDbLine
 10
33.712639
 20
92.382759
 30
0.0
 11
33.712639
 21
148.401787
 31
0.0
210
0.0
220
0.0
230
1.0
  0
POLYLINE
  5
1C8
100
AcDbEntity
  8
0
370
    13
390
0
 62
     7
100
AcDb2dPolyline
 66
     1
 10
0.0
 20
0.0
 30
0.0
 70
     1
 71
     3
  0
VERTEX
  5
1C9
100
AcDbEntity
  8
0
370
     0
390
0
100
AcDbVertex
100
AcDb2dVertex
 10
33.930534
 20
148.401787
 30
0.0
  0
VERTEX
  5
1CA
100
AcDbEntity
  8
0
370
     0
390
0
100
AcDbVertex
100
AcDb2dVertex
 10
33.712639
 20
150.892273
 30
0.0
  0
VERTEX
  5
1CB
100
AcDbEntity
  8
0
370
     0
390
0
100
AcDbVertex
100
AcDb2dVertex
 10
33.494743
 20
148.401787
 30
0.0
  0
SEQEND
  5
1CC
100
AcDbEntity
  8
0
370
     0
390
0
  0
POLYLINE
  5
1CD
100
AcDbEntity
  8
0
370
    13
390
0
 62
     7
100
AcDb2dPolyline
 66
     1
 10
0.0
 20
0.0
 30
0.0
 70
     1
 71
     3
  0
VERTEX
  5
1CE
100
AcDbEntity
  8
0
370
     0
390
0
100
AcDbVertex
100
AcDb2dVertex
 10
33.494743
 20
92.382759
 30
0.0
  0
VERTEX
  5
1CF
100
AcDbEntity
  8
0
370
     0
390
0
100
AcDbVertex
100
AcDb2dVertex
 10
33.712639
 20
89.892273
 30
0.0
  0
VERTEX
  5
1D0
100
AcDbEntity
  8
0
370
     0
390
0
100
AcDbVertex
100
AcDb2dVertex
 10
33.930534
 20
92.382759
 30
0.0
  0
SEQEND
  5
1D1
100
AcDbEntity
  8
0
370
     0
390
0
  0
ENDBLK
  5
1D2
100
AcDbEntity
  8
0
390
0
100
AcDbBlockEnd
  0
BLOCK
  5
1D3
100
AcDbEntity
  8
0
370
     0
390
0
100
AcDbBlockBegin
  2
BLOCK30
 70
     0
 10
0.0
 20
0.0
 30
0.0
  3
BLOCK30
  1

  0
LINE
  5
1D4
100
AcDbEntity
  8
0
370
    35
390
0
 62
     7
 48
0.073007
100
AcDbLine
 10
0.0
 20
20.0
 30
0.0
 11
0.0
 21
17.07972
 31
0.0
210
0.0
220
0.0
230
1.0
  0
LINE
  5
1D5
100
AcDbEntity
  8
0
370
    35
390
0
 62
     7
 48
0.25
100
AcDbLine
 10
0.0
 20
-10.0
 30
0.0
 11
0.0
 21
-20.0
 31
0.0
210
0.0
220
0.0
230
1.0
  0
LINE
  5
1D6
100
AcDbEntity
  8
0
370
    35
390
0
 62
     7
100
AcDbLine
 10
0.0
 20
10.0
 30
0.0
 11
0.0
 21
-10.0
 31
0.0
210
0.0
220
0.0
230
1.0
  0
LINE
  5
1D7
100
AcDbEntity
  8
0
370
    35
390
0
 62
     7
 48
0.176993
100
AcDbLine
 10
0.0
 20
17.07972
 30
0.0
 11
0.0
 21
10.0
 31
0.0
210
0.0
220
0.0
230
1.0
  0
LINE
  5
1D8
100
AcDbEntity
  8
0
370
    35
390
0
 62
     7
 48
0.238202
100
AcDbLine
 10
-120.0
 20
10.0
 30
0.0
 11
-120.0
 21
0.471932
 31
0.0
210
0.0
220
0.0
230
1.0
  0
LINE
  5
1D9
100
AcDbEntity
  8
0
370
    35
390
0
 62
     7
 48
0.261798
100
AcDbLine
 10
-120.0
 20
0.471932
 30
0.0
 11
-120.0
 21
-10.0
 31
0.0
210
0.0
220
0.0
230
1.0
  0
LINE
  5
1DA
100
AcDbEntity
  8
0
370
    35
390
0
 62
     7
 48
0.25
100
AcDbLine
 10
-120.0
 20
-10.0
 30
0.0
 11
-120.0
 21
-20.0
 31
0.0
210
0.0
220
0.0
230
1.0
  0
LINE
  5
1DB
100
AcDbEntity
  8
0
370
    35
390
0
 62
     7
 48
0.25
100
AcDbLine
 10
-120.0
 20
20.0
 30
0.0
 11
-120.0
 21
10.0
 31
0.0
210
0.0
220
0.0
230
1.0
  0
LINE
  5
1DC
100
AcDbEntity
  8
0
370
    13
390
0
 62
     7
 48
0.080308
100
AcDbLine
 10
-12.585786
 20
22.0
 30
0.0
 11
-12.585786
 21
18.787691
 31
0.0
210
0.0
220
0.0
230
1.0
  0
LINE
  5
1DD
100
AcDbEntity
  8
0
370
    13
390
0
 62
     7
 48
0.081377
100
AcDbLine
 10
-13.292893
 20
22.292893
 30
0.0
 11
-13.292893
 21
19.037818
 31
0.0
210
0.0
220
0.0
230
1.0
  0
LINE
  5
1DE
100
AcDbEntity
  8
0
370
    13
390
0
 62
     7
100
AcDbLine
 10
-12.585786
 20
18.787691
 30
0.0
 11
-12.585786
 21
-22.0
 31
0.0
210
0.0
220
0.0
230
1.0
  0
LINE
  5
1DF
100
AcDbEntity
  8
0
370
    13
390
0
 62
     7
100
AcDbLine
 10
-13.292893
 20
19.037818
 30
0.0
 11
-13.292893
 21
-22.292893
 31
0.0
210
0.0
220
0.0
230
1.0
  0
LINE
  5
1E0
100
AcDbEntity
  8
0
370
    13
390
0
 62
     7
 48
0.092927
100
AcDbLine
 10
-16.457107
 20
25.457107
 30
0.0
 11
-16.457107
 21
21.740012
 31
0.0
210
0.0
220
0.0
230
1.0
  0
LINE
  5
1E1
100
AcDbEntity
  8
0
370
    13
390
0
 62
     7
100
AcDbLine
 10
-16.457107
 20
21.740012
 30
0.0
 11
-16.457107
 21
-25.457107
 31
0.0
210
0.0
220
0.0
230
1.0
  0
LINE
  5
1E2
100
AcDbEntity
  8
0
370
    13
390
0
 62
     7
 48
0.093997
100
AcDbLine
 10
-17.164214
 20
25.75
 30
0.0
 11
-17.164214
 21
21.990139
 31
0.0
210
0.0
220
0.0
230
1.0
  0
LINE
  5
1E3
100
AcDbEntity
  8
0
370
    13
390
0
 62
     7
100
AcDbLine
 10
-17.164214
 20
21.990139
 30
0.0
 11
-17.164214
 21
-25.75
 31
0.0
210
0.0
220
0.0
230
1.0
  0
LINE
  5
1E4
100
AcDbEntity
  8
0
370
    35
390
0
 62
     7
 48
0.093997
100
AcDbLine
 10
-28.25
 20
25.75
 30
0.0
 11
-28.25
 21
21.990139
 31
0.0
210
0.0
220
0.0
230
1.0
  0
LINE
  5
1E5
100
AcDbEntity
  8
0
370
    35
390
0
 62
     7
100
AcDbLine
 10
-28.25
 20
21.990139
 30
0.0
 11
-28.25
 21
-25.75
 31
0.0
210
0.0
220
0.0
230
1.0
  0
LINE
  5
1E6
100
AcDbEntity
  8
0
370
    35
390
0
 62
     7
 48
0.093997
100
AcDbLine
 10
-49.25
 20
25.75
 30
0.0
 11
-49.25
 21
21.990139
 31
0.0
210
0.0
220
0.0
230
1.0
  0
LINE
  5
1E7
100
AcDbEntity
  8
0
370
    13
390
0
 62
     7
 48
0.093997
100
AcDbLine
 10
-59.526646
 20
25.75
 30
0.0
 11
-59.526646
 21
21.990139
 31
0.0
210
0.0
220
0.0
230
1.0
  0
LINE
  5
1E8
100
AcDbEntity
  8
0
370
    35
390
0
 62
     7
100
AcDbLine
 10
-49.25
 20
21.990139
 30
0.0
 11
-49.25
 21
-25.75
 31
0.0
210
0.0
220
0.0
230
1.0
  0
LINE
  5
1E9
100
AcDbEntity
  8
0
370
    13
390
0
 62
     7
100
AcDbLine
 10
-59.526646
 20
21.990139
 30
0.0
 11
-59.526646
 21
-25.75
 31
0.0
210
0.0
220
0.0
230
1.0
  0
LINE
  5
1EA
100
AcDbEntity
  8
0
370
    13
390
0
 62
     7
 48
0.095822
100
AcDbLine
 10
-60.392672
 20
26.25
 30
0.0
 11
-60.392672
 21
22.417132
 31
0.0
210
0.0
220
0.0
230
1.0
  0
LINE
  5
1EB
100
AcDbEntity
  8
0
370
    13
390
0
 62
     7
100
AcDbLine
 10
-60.392672
 20
22.417132
 30
0.0
 11
-60.392672
 21
-26.25
 31
0.0
210
0.0
220
0.0
230
1.0
  0
LINE
  5
1EC
100
AcDbEntity
  8
0
370
    13
390
0
 62
     7
 48
0.10732
100
AcDbLine
 10
-62.211325
 20
29.4
 30
0.0
 11
-62.211325
 21
25.107188
 31
0.0
210
0.0
220
0.0
230
1.0
  0
LINE
  5
1ED
100
AcDbEntity
  8
0
370
    13
390
0
 62
     7
100
AcDbLine
 10
-62.211325
 20
25.107188
 30
0.0
 11
-62.211325
 21
-29.4
 31
0.0
210
0.0
220
0.0
230
1.0
  0
LINE
  5
1EE
100
AcDbEntity
  8
0
370
    13
390
0
 62
     7
 48
0.109145
100
AcDbLine
 10
-63.07735
 20
29.9
 30
0.0
 11
-63.07735
 21
25.534181
 31
0.0
210
0.0
220
0.0
230
1.0
  0
LINE
  5
1EF
100
AcDbEntity
  8
0
370
    13
390
0
 62
     7
100
AcDbLine
 10
-63.07735
 20
25.534181
 30
0.0
 11
-63.07735
 21
-29.9
 31
0.0
210
0.0
220
0.0
230
1.0
  0
LINE
  5
1F0
100
AcDbEntity
  8
0
370
    35
390
0
 62
     7
 48
0.030308
100
AcDbLine
 10
-1.154701
 20
20.0
 30
0.0
 11
-1.154701
 21
18.787691
 31
0.0
210
0.0
220
0.0
230
1.0
  0
LINE
  5
1F1
100
AcDbEntity
  8
0
370
    35
390
0
 62
     7
 48
0.028868
100
AcDbLine
 10
-1.154701
 20
20.0
 30
0.0
 11
0.0
 21
20.0
 31
0.0
210
0.0
220
0.0
230
1.0
  0
SPLINE
  5
1F2
100
AcDbEntity
  8
0
370
    35
390
0
 62
     7
100
AcDbSpline
210
0.0
220
0.0
230
1.0
 70
     8
 71
     5
 72
    12
 73
     6
 74
     0
 42
0.0
 43
0.0
 40
0.0
 40
0.0
 40
0.0
 40
0.0
 40
0.0
 40
0.0
 40
44.053438970940888
 40
44.053438970940888
 40
44.053438970940888
 40
44.053438970940888
 40
44.053438970940888
 40
44.053438970940888
 10
-1.1547005383792555
 20
2.0627460668062114
 30
0.0
 10
-0.6601900603179548
 20
3.8432781149713295
 30
0.0
 10
-0.3232256211178098
 20
5.4691739192574049
 30
0.0
 10
-0.1077372088235423
 20
7.007158119635184
 30
0.0
 10
-0.0000000066919282
 20
8.5035789671585729
 30
0.0
 10
-0.0000000000000004
 20
9.9999998838151747
 30
0.0
  0
LINE
  5
1F3
100
AcDbEntity
  8
0
370
    35
390
0
 62
     7
 48
0.103137
100
AcDbLine
 10
-1.154701
 20
2.062746
 30
0.0
 11
-1.154701
 21
-2.062746
 31
0.0
210
0.0
220
0.0
230
1.0
  0
SPLINE
  5
1F4
100
AcDbEntity
  8
0
370
    35
390
0
 62
     7
100
AcDbSpline
210
0.0
220
0.0
230
1.0
 70
     8
 71
     4
 72
    10
 73
     5
 74
     0
 42
0.0
 43
0.0
 40
44.053438547796738
 40
44.053438547796738
 40
44.053438547796738
 40
44.053438547796738
 40
44.053438547796738
 40
88.106880723458005
 40
88.106880723458005
 40
88.106880723458005
 40
88.106880723458005
 40
88.106880723458005
 10
-0.0000000000000007
 20
-10.000000187588643
 30
0.0
 10
0.0000000135057419
 20
-8.1294739056942031
 30
0.0
 10
-0.1802815071794836
 20
-6.2576484554841283
 30
0.0
 10
-0.5365623958354306
 20
-4.2884112889212584
 30
0.0
 10
-1.1547005383792555
 20
-2.0627460668061843
 30
0.0
  0
SPLINE
  5
1F5
100
AcDbEntity
  8
0
370
    35
390
0
 62
     7
100
AcDbSpline
210
0.0
220
0.0
230
1.0
 70
     8
 71
     5
 72
    12
 73
     6
 74
     0
 42
0.0
 43
0.0
 40
0.0
 40
0.0
 40
0.0
 40
0.0
 40
0.0
 40
0.0
 40
44.053438547796738
 40
44.053438547796738
 40
44.053438547796738
 40
44.053438547796738
 40
44.053438547796738
 40
44.053438547796738
 10
-1.1547005383792555
 20
-17.937253933193809
 30
0.0
 10
-0.6601900650678496
 20
-16.156721902131139
 30
0.0
 10
-0.3232256274698653
 20
-14.530826111976868
 30
0.0
 10
-0.1077372150522604
 20
-12.992841924164953
 30
0.0
 10
-0.0000000108045936
 20
-11.496421089871754
 30
0.0
 10
-0.0000000000000003
 20
-10.000000187588643
 30
0.0
  0
LINE
  5
1F6
100
AcDbEntity
  8
0
370
    35
390
0
 62
     7
 48
0.051569
100
AcDbLine
 10
-1.154701
 20
-17.937254
 30
0.0
 11
-1.154701
 21
-20.0
 31
0.0
210
0.0
220
0.0
230
1.0
  0
LINE
  5
1F7
100
AcDbEntity
  8
0
370
    35
390
0
 62
     7
 48
0.028868
100
AcDbLine
 10
0.0
 20
-20.0
 30
0.0
 11
-1.154701
 21
-20.0
 31
0.0
210
0.0
220
0.0
230
1.0
  0
LINE
  5
1F8
100
AcDbEntity
  8
0
370
    35
390
0
 62
     7
 48
0.021261
100
AcDbLine
 10
-1.154701
 20
18.787691
 30
0.0
 11
-1.154701
 21
17.937254
 31
0.0
210
0.0
220
0.0
230
1.0
  0
SPLINE
  5
1F9
100
AcDbEntity
  8
0
370
    35
390
0
 62
     7
100
AcDbSpline
210
0.0
220
0.0
230
1.0
 70
     8
 71
     4
 72
    10
 73
     5
 74
     0
 42
0.0
 43
0.0
 40
44.053438970940888
 40
44.053438970940888
 40
44.053438970940888
 40
44.053438970940888
 40
44.053438970940888
 40
88.106880720357026
 40
88.106880720357026
 40
88.106880720357026
 40
88.106880720357026
 40
88.106880720357026
 10
-0.0000000000000001
 20
9.9999998838151747
 30
0.0
 10
0.0000000083649101
 20
11.870526147611061
 30
0.0
 10
-0.1802815139573848
 20
13.742351582093626
 30
0.0
 10
-0.5365624018163104
 20
15.711588732613457
 30
0.0
 10
-1.1547005383792559
 20
17.937253933193812
 30
0.0
  0
LINE
  5
1FA
100
AcDbEntity
  8
0
370
    35
390
0
 62
     7
 48
0.05
100
AcDbLine
 10
-12.0
 20
20.0
 30
0.0
 11
-12.0
 21
22.0
 31
0.0
210
0.0
220
0.0
230
1.0
  0
LINE
  5
1FB
100
AcDbEntity
  8
0
370
    35
390
0
 62
     7
 48
0.271132
100
AcDbLine
 10
-1.154701
 20
20.0
 30
0.0
 11
-12.0
 21
20.0
 31
0.0
210
0.0
220
0.0
230
1.0
  0
LINE
  5
1FC
100
AcDbEntity
  8
0
370
    35
390
0
 62
     7
 48
0.271132
100
AcDbLine
 10
-1.154701
 20
-20.0
 30
0.0
 11
-12.0
 21
-20.0
 31
0.0
210
0.0
220
0.0
230
1.0
  0
LINE
  5
1FD
100
AcDbEntity
  8
0
370
    35
390
0
 62
     7
 48
0.05
100
AcDbLine
 10
-12.0
 20
-22.0
 30
0.0
 11
-12.0
 21
-20.0
 31
0.0
210
0.0
220
0.0
230
1.0
  0
LINE
  5
1FE
100
AcDbEntity
  8
0
370
    35
390
0
 62
     7
 48
0.271132
100
AcDbLine
 10
-1.154701
 20
17.937254
 30
0.0
 11
-12.0
 21
17.937254
 31
0.0
210
0.0
220
0.0
230
1.0
  0
LINE
  5
1FF
100
AcDbEntity
  8
0
370
    35
390
0
 62
     7
 48
0.396863
100
AcDbLine
 10
-12.0
 20
2.062746
 30
0.0
 11
-12.0
 21
17.937254
 31
0.0
210
0.0
220
0.0
230
1.0
  0
LINE
  5
200
100
AcDbEntity
  8
0
370
    35
390
0
 62
     7
 48
0.271132
100
AcDbLine
 10
-12.0
 20
2.062746
 30
0.0
 11
-1.154701
 21
2.062746
 31
0.0
210
0.0
220
0.0
230
1.0
  0
LINE
  5
201
100
AcDbEntity
  8
0
370
    35
390
0
 62
     7
 48
0.271132
100
AcDbLine
 10
-1.154701
 20
-2.062746
 30
0.0
 11
-12.0
 21
-2.062746
 31
0.0
210
0.0
220
0.0
230
1.0
  0
LINE
  5
202
100
AcDbEntity
  8
0
370
    35
390
0
 62
     7
 48
0.396863
100
AcDbLine
 10
-12.0
 20
-17.937254
 30
0.0
 11
-12.0
 21
-2.062746
 31
0.0
210
0.0
220
0.0
230
1.0
  0
LINE
  5
203
100
AcDbEntity
  8
0
370
    35
390
0
 62
     7
 48
0.271132
100
AcDbLine
 10
-1.154701
 20
-17.937254
 30
0.0
 11
-12.0
 21
-17.937254
 31
0.0
210
0.0
220
0.0
230
1.0
  0
LINE
  5
204
100
AcDbEntity
  8
0
370
    13
390
0
 62
     7
100
AcDbLine
 10
-82.468911
 20
-30.5
 30
0.0
 11
-82.468911
 21
0.719696
 31
0.0
210
0.0
220
0.0
230
1.0
  0
LINE
  5
205
100
AcDbEntity
  8
0
370
    13
390
0
 62
     7
100
AcDbLine
 10
-83.334936
 20
-30.0
 30
0.0
 11
-83.334936
 21
0.707898
 31
0.0
210
0.0
220
0.0
230
1.0
  0
LINE
  5
206
100
AcDbEntity
  8
0
370
    13
390
0
 62
     7
100
AcDbLine
 10
-82.468911
 20
0.719696
 30
0.0
 11
-82.468911
 21
30.5
 31
0.0
210
0.0
220
0.0
230
1.0
  0
LINE
  5
207
100
AcDbEntity
  8
0
370
    13
390
0
 62
     7
100
AcDbLine
 10
-83.334936
 20
0.707898
 30
0.0
 11
-83.334936
 21
30.0
 31
0.0
210
0.0
220
0.0
230
1.0
  0
LINE
  5
208
100
AcDbEntity
  8
0
370
    13
390
0
 62
     7
100
AcDbLine
 10
-85.211325
 20
-26.75
 30
0.0
 11
-85.211325
 21
0.631209
 31
0.0
210
0.0
220
0.0
230
1.0
  0
LINE
  5
209
100
AcDbEntity
  8
0
370
    13
390
0
 62
     7
100
AcDbLine
 10
-85.211325
 20
0.631209
 30
0.0
 11
-85.211325
 21
26.75
 31
0.0
210
0.0
220
0.0
230
1.0
  0
LINE
  5
20A
100
AcDbEntity
  8
0
370
    13
390
0
 62
     7
100
AcDbLine
 10
-86.07735
 20
-26.25
 30
0.0
 11
-86.07735
 21
0.61941
 31
0.0
210
0.0
220
0.0
230
1.0
  0
LINE
  5
20B
100
AcDbEntity
  8
0
370
    13
390
0
 62
     7
100
AcDbLine
 10
-86.07735
 20
0.61941
 30
0.0
 11
-86.07735
 21
26.25
 31
0.0
210
0.0
220
0.0
230
1.0
  0
LINE
  5
20C
100
AcDbEntity
  8
0
370
    13
390
0
 62
     7
100
AcDbLine
 10
-96.335786
 20
-26.25
 30
0.0
 11
-96.335786
 21
0.61941
 31
0.0
210
0.0
220
0.0
230
1.0
  0
LINE
  5
20D
100
AcDbEntity
  8
0
370
    13
390
0
 62
     7
100
AcDbLine
 10
-96.335786
 20
0.61941
 30
0.0
 11
-96.335786
 21
26.25
 31
0.0
210
0.0
220
0.0
230
1.0
  0
LINE
  5
20E
100
AcDbEntity
  8
0
370
    13
390
0
 62
     7
100
AcDbLine
 10
-97.042893
 20
-25.957107
 30
0.0
 11
-97.042893
 21
0.612499
 31
0.0
210
0.0
220
0.0
230
1.0
  0
LINE
  5
20F
100
AcDbEntity
  8
0
370
    13
390
0
 62
     7
100
AcDbLine
 10
-97.042893
 20
0.612499
 30
0.0
 11
-97.042893
 21
25.957107
 31
0.0
210
0.0
220
0.0
230
1.0
  0
LINE
  5
210
100
AcDbEntity
  8
0
370
    13
390
0
 62
     7
100
AcDbLine
 10
-100.707107
 20
-22.292893
 30
0.0
 11
-100.707107
 21
0.526036
 31
0.0
210
0.0
220
0.0
230
1.0
  0
LINE
  5
211
100
AcDbEntity
  8
0
370
    13
390
0
 62
     7
100
AcDbLine
 10
-100.707107
 20
0.526036
 30
0.0
 11
-100.707107
 21
22.292893
 31
0.0
210
0.0
220
0.0
230
1.0
  0
LINE
  5
212
100
AcDbEntity
  8
0
370
    13
390
0
 62
     7
100
AcDbLine
 10
-101.414214
 20
-22.0
 30
0.0
 11
-101.414214
 21
0.519125
 31
0.0
210
0.0
220
0.0
230
1.0
  0
LINE
  5
213
100
AcDbEntity
  8
0
370
    13
390
0
 62
     7
100
AcDbLine
 10
-101.414214
 20
0.519125
 30
0.0
 11
-101.414214
 21
22.0
 31
0.0
210
0.0
220
0.0
230
1.0
  0
LINE
  5
214
100
AcDbEntity
  8
0
370
    35
390
0
 62
     7
100
AcDbLine
 10
-65.0
 20
-30.0
 30
0.0
 11
-65.0
 21
0.707898
 31
0.0
210
0.0
220
0.0
230
1.0
  0
LINE
  5
215
100
AcDbEntity
  8
0
370
    35
390
0
 62
     7
100
AcDbLine
 10
-65.0
 20
0.707898
 30
0.0
 11
-65.0
 21
30.0
 31
0.0
210
0.0
220
0.0
230
1.0
  0
LINE
  5
216
100
AcDbEntity
  8
0
370
    35
390
0
 62
     7
100
AcDbLine
 10
-65.5
 20
30.5
 30
0.0
 11
-65.5
 21
0.719696
 31
0.0
210
0.0
220
0.0
230
1.0
  0
LINE
  5
217
100
AcDbEntity
  8
0
370
    35
390
0
 62
     7
100
AcDbLine
 10
-65.5
 20
0.719696
 30
0.0
 11
-65.5
 21
-30.5
 31
0.0
210
0.0
220
0.0
230
1.0
  0
LINE
  5
218
100
AcDbEntity
  8
0
370
    35
390
0
 62
     7
 48
0.028868
100
AcDbLine
 10
-120.0
 20
20.0
 30
0.0
 11
-118.845299
 21
20.0
 31
0.0
210
0.0
220
0.0
230
1.0
  0
LINE
  5
219
100
AcDbEntity
  8
0
370
    35
390
0
 62
     7
 48
0.051569
100
AcDbLine
 10
-118.845299
 20
17.937254
 30
0.0
 11
-118.845299
 21
20.0
 31
0.0
210
0.0
220
0.0
230
1.0
  0
SPLINE
  5
21A
100
AcDbEntity
  8
0
370
    35
390
0
 62
     7
100
AcDbSpline
210
0.0
220
0.0
230
1.0
 70
     8
 71
     5
 72
    12
 73
     6
 74
     0
 42
0.0
 43
0.0
 40
0.0
 40
0.0
 40
0.0
 40
0.0
 40
0.0
 40
0.0
 40
44.053439645504049
 40
44.053439645504049
 40
44.053439645504049
 40
44.053439645504049
 40
44.053439645504049
 40
44.053439645504049
 10
-118.84529946162077
 20
17.937253933193812
 30
0.0
 10
-119.3398099472542
 20
16.156721857764499
 30
0.0
 10
-119.67677438933633
 20
14.530826030879958
 30
0.0
 10
-119.89226280128845
 20
12.992841808094635
 30
0.0
 10
-120.0
 20
11.49642093957039
 30
0.0
 10
-120.0
 20
10.000000000000018
 30
0.0
  0
SPLINE
  5
21B
100
AcDbEntity
  8
0
370
    35
390
0
 62
     7
100
AcDbSpline
210
0.0
220
0.0
230
1.0
 70
     8
 71
     5
 72
    12
 73
     6
 74
     0
 42
0.0
 43
0.0
 40
44.053439645504049
 40
44.053439645504049
 40
44.053439645504049
 40
44.053439645504049
 40
44.053439645504049
 40
44.053439645504049
 40
88.106880693301051
 40
88.106880693301051
 40
88.106880693301051
 40
88.106880693301051
 40
88.106880693301051
 40
88.106880693301051
 10
-120.00000000000003
 20
10.000000000000018
 30
0.0
 10
-120.00000000000001
 20
8.5035790127961182
 30
0.0
 10
-119.89226279442956
 20
7.007157954546086
 30
0.0
 10
-119.6767744110377
 20
5.4691740727931677
 30
0.0
 10
-119.33980996299526
 20
3.8432781989127598
 30
0.0
 10
-118.84529946162075
 20
2.0627460668062052
 30
0.0
  0
LINE
  5
21C
100
AcDbEntity
  8
0
370
    35
390
0
 62
     7
 48
0.038591
100
AcDbLine
 10
-118.845299
 20
0.519125
 30
0.0
 11
-118.845299
 21
2.062746
 31
0.0
210
0.0
220
0.0
230
1.0
  0
SPLINE
  5
21D
100
AcDbEntity
  8
0
370
    35
390
0
 62
     7
100
AcDbSpline
210
0.0
220
0.0
230
1.0
 70
     8
 71
     4
 72
    10
 73
     5
 74
     0
 42
0.0
 43
0.0
 40
44.053439467988696
 40
44.053439467988696
 40
44.053439467988696
 40
44.053439467988696
 40
44.053439467988696
 40
88.106880738400321
 40
88.106880738400321
 40
88.106880738400321
 40
88.106880738400321
 40
88.106880738400321
 10
-120.0
 20
-9.9999999667828057
 30
0.0
 10
-120.00000000239146
 20
-11.870526210239976
 30
0.0
 10
-119.81971847801844
 20
-13.742351625808265
 30
0.0
 10
-119.46343759146251
 20
-15.711588756813686
 30
0.0
 10
-118.84529946162077
 20
-17.937253933193805
 30
0.0
  0
LINE
  5
21E
100
AcDbEntity
  8
0
370
    35
390
0
 62
     7
 48
0.051569
100
AcDbLine
 10
-118.845299
 20
-20.0
 30
0.0
 11
-118.845299
 21
-17.937254
 31
0.0
210
0.0
220
0.0
230
1.0
  0
LINE
  5
21F
100
AcDbEntity
  8
0
370
    35
390
0
 62
     7
 48
0.028868
100
AcDbLine
 10
-118.845299
 20
-20.0
 30
0.0
 11
-120.0
 21
-20.0
 31
0.0
210
0.0
220
0.0
230
1.0
  0
SPLINE
  5
220
100
AcDbEntity
  8
0
370
    35
390
0
 62
     7
100
AcDbSpline
210
0.0
220
0.0
230
1.0
 70
     8
 71
     5
 72
    12
 73
     6
 74
     0
 42
0.0
 43
0.0
 40
0.0
 40
0.0
 40
0.0
 40
0.0
 40
0.0
 40
0.0
 40
44.053439467988696
 40
44.053439467988696
 40
44.053439467988696
 40
44.053439467988696
 40
44.053439467988696
 40
44.053439467988696
 10
-118.84529946162075
 20
-2.0627460668061892
 30
0.0
 10
-119.33980994526154
 20
-3.8432781350607672
 30
0.0
 10
-119.67677438649947
 20
-5.4691739559235035
 30
0.0
 10
-119.89226279813906
 20
-7.0071581701944128
 30
0.0
 10
-119.99999999808676
 20
-8.5035790332423318
 30
0.0
 10
-120.0
 20
-9.9999999667828057
 30
0.0
  0
LINE
  5
221
100
AcDbEntity
  8
0
370
    35
390
0
 62
     7
 48
0.064547
100
AcDbLine
 10
-118.845299
 20
-2.062746
 30
0.0
 11
-118.845299
 21
0.519125
 31
0.0
210
0.0
220
0.0
230
1.0
  0
LINE
  5
222
100
AcDbEntity
  8
0
370
    35
390
0
 62
     7
 48
0.271132
100
AcDbLine
 10
-108.0
 20
-20.0
 30
0.0
 11
-118.845299
 21
-20.0
 31
0.0
210
0.0
220
0.0
230
1.0
  0
LINE
  5
223
100
AcDbEntity
  8
0
370
    35
390
0
 62
     7
 48
0.05
100
AcDbLine
 10
-108.0
 20
-20.0
 30
0.0
 11
-108.0
 21
-22.0
 31
0.0
210
0.0
220
0.0
230
1.0
  0
LINE
  5
224
100
AcDbEntity
  8
0
370
    35
390
0
 62
     7
 48
0.271132
100
AcDbLine
 10
-118.845299
 20
-2.062746
 30
0.0
 11
-108.0
 21
-2.062746
 31
0.0
210
0.0
220
0.0
230
1.0
  0
LINE
  5
225
100
AcDbEntity
  8
0
370
    35
390
0
 62
     7
 48
0.396863
100
AcDbLine
 10
-108.0
 20
-2.062746
 30
0.0
 11
-108.0
 21
-17.937254
 31
0.0
210
0.0
220
0.0
230
1.0
  0
LINE
  5
226
100
AcDbEntity
  8
0
370
    35
390
0
 62
     7
 48
0.271132
100
AcDbLine
 10
-118.845299
 20
-17.937254
 30
0.0
 11
-108.0
 21
-17.937254
 31
0.0
210
0.0
220
0.0
230
1.0
  0
LINE
  5
227
100
AcDbEntity
  8
0
370
    35
390
0
 62
     7
 48
0.05
100
AcDbLine
 10
-108.0
 20
22.0
 30
0.0
 11
-108.0
 21
20.0
 31
0.0
210
0.0
220
0.0
230
1.0
  0
LINE
  5
228
100
AcDbEntity
  8
0
370
    35
390
0
 62
     7
 48
0.271132
100
AcDbLine
 10
-118.845299
 20
20.0
 30
0.0
 11
-108.0
 21
20.0
 31
0.0
210
0.0
220
0.0
230
1.0
  0
LINE
  5
229
100
AcDbEntity
  8
0
370
    35
390
0
 62
     7
 48
0.271132
100
AcDbLine
 10
-108.0
 20
17.937254
 30
0.0
 11
-118.845299
 21
17.937254
 31
0.0
210
0.0
220
0.0
230
1.0
  0
LINE
  5
22A
100
AcDbEntity
  8
0
370
    35
390
0
 62
     7
 48
0.396863
100
AcDbLine
 10
-108.0
 20
17.937254
 30
0.0
 11
-108.0
 21
2.062746
 31
0.0
210
0.0
220
0.0
230
1.0
  0
LINE
  5
22B
100
AcDbEntity
  8
0
370
    35
390
0
 62
     7
 48
0.271132
100
AcDbLine
 10
-118.845299
 20
2.062746
 30
0.0
 11
-108.0
 21
2.062746
 31
0.0
210
0.0
220
0.0
230
1.0
  0
ARC
  5
22C
100
AcDbEntity
  8
0
370
    35
390
0
 62
     7
100
AcDbCircle
 10
-12.585786
 20
23.0
 30
0.0
 40
1.0
210
0.0
220
0.0
230
1.0
100
AcDbArc
 50
225.0
 51
270.0
  0
ARC
  5
22D
100
AcDbEntity
  8
0
370
    35
390
0
 62
     7
100
AcDbCircle
 10
-12.585786
 20
-23.0
 30
0.0
 40
1.0
210
0.0
220
0.0
230
1.0
100
AcDbArc
 50
90.0
 51
135.0
  0
LINE
  5
22E
100
AcDbEntity
  8
0
370
    35
390
0
 62
     7
 48
0.111872
100
AcDbLine
 10
-13.292893
 20
22.292893
 30
0.0
 11
-16.457107
 21
25.457107
 31
0.0
210
0.0
220
0.0
230
1.0
  0
LINE
  5
22F
100
AcDbEntity
  8
0
370
    35
390
0
 62
     7
 48
0.111872
100
AcDbLine
 10
-13.292893
 20
-22.292893
 30
0.0
 11
-16.457107
 21
-25.457107
 31
0.0
210
0.0
220
0.0
230
1.0
  0
ARC
  5
230
100
AcDbEntity
  8
0
370
    35
390
0
 62
     7
100
AcDbCircle
 10
-17.164214
 20
24.75
 30
0.0
 40
1.0
210
0.0
220
0.0
230
1.0
100
AcDbArc
 50
45.0
 51
90.0
  0
ARC
  5
231
100
AcDbEntity
  8
0
370
    35
390
0
 62
     7
100
AcDbCircle
 10
-17.164214
 20
-24.75
 30
0.0
 40
1.0
210
0.0
220
0.0
230
1.0
100
AcDbArc
 50
270.0
 51
315.0
  0
LINE
  5
232
100
AcDbEntity
  8
0
370
    35
390
0
 62
     7
 48
0.277145
100
AcDbLine
 10
-17.164214
 20
25.75
 30
0.0
 11
-28.25
 21
25.75
 31
0.0
210
0.0
220
0.0
230
1.0
  0
LINE
  5
233
100
AcDbEntity
  8
0
370
    35
390
0
 62
     7
 48
0.277145
100
AcDbLine
 10
-17.164214
 20
-25.75
 30
0.0
 11
-28.25
 21
-25.75
 31
0.0
210
0.0
220
0.0
230
1.0
  0
LINE
  5
234
100
AcDbEntity
  8
0
370
    35
390
0
 62
     7
100
AcDbLine
 10
-28.25
 20
25.45
 30
0.0
 11
-49.25
 21
25.45
 31
0.0
210
0.0
220
0.0
230
1.0
  0
LINE
  5
235
100
AcDbEntity
  8
0
370
    35
390
0
 62
     7
100
AcDbLine
 10
-28.25
 20
-25.45
 30
0.0
 11
-49.25
 21
-25.45
 31
0.0
210
0.0
220
0.0
230
1.0
  0
LINE
  5
236
100
AcDbEntity
  8
0
370
    35
390
0
 62
     7
 48
0.256916
100
AcDbLine
 10
-49.25
 20
25.75
 30
0.0
 11
-59.526646
 21
25.75
 31
0.0
210
0.0
220
0.0
230
1.0
  0
LINE
  5
237
100
AcDbEntity
  8
0
370
    35
390
0
 62
     7
 48
0.256916
100
AcDbLine
 10
-49.25
 20
-25.75
 30
0.0
 11
-59.526646
 21
-25.75
 31
0.0
210
0.0
220
0.0
230
1.0
  0
ARC
  5
238
100
AcDbEntity
  8
0
370
    35
390
0
 62
     7
100
AcDbCircle
 10
-59.526646
 20
26.75
 30
0.0
 40
1.0
210
0.0
220
0.0
230
1.0
100
AcDbArc
 50
210.0
 51
270.0
  0
ARC
  5
239
100
AcDbEntity
  8
0
370
    35
390
0
 62
     7
100
AcDbCircle
 10
-59.526646
 20
-26.75
 30
0.0
 40
1.0
210
0.0
220
0.0
230
1.0
100
AcDbArc
 50
90.0
 51
150.0
  0
LINE
  5
23A
100
AcDbEntity
  8
0
370
    35
390
0
 62
     7
 48
0.090933
100
AcDbLine
 10
-60.392672
 20
26.25
 30
0.0
 11
-62.211325
 21
29.4
 31
0.0
210
0.0
220
0.0
230
1.0
  0
LINE
  5
23B
100
AcDbEntity
  8
0
370
    35
390
0
 62
     7
 48
0.090933
100
AcDbLine
 10
-60.392672
 20
-26.25
 30
0.0
 11
-62.211325
 21
-29.4
 31
0.0
210
0.0
220
0.0
230
1.0
  0
ARC
  5
23C
100
AcDbEntity
  8
0
370
    35
390
0
 62
     7
100
AcDbCircle
 10
-63.07735
 20
28.9
 30
0.0
 40
1.0
210
0.0
220
0.0
230
1.0
100
AcDbArc
 50
30.0
 51
90.0
  0
ARC
  5
23D
100
AcDbEntity
  8
0
370
    35
390
0
 62
     7
100
AcDbCircle
 10
-63.07735
 20
-28.9
 30
0.0
 40
1.0
210
0.0
220
0.0
230
1.0
100
AcDbArc
 50
270.0
 51
330.0
  0
LINE
  5
23E
100
AcDbEntity
  8
0
370
    35
390
0
 62
     7
 48
0.048066
100
AcDbLine
 10
-63.07735
 20
29.9
 30
0.0
 11
-65.0
 21
29.9
 31
0.0
210
0.0
220
0.0
230
1.0
  0
LINE
  5
23F
100
AcDbEntity
  8
0
370
    35
390
0
 62
     7
 48
0.048066
100
AcDbLine
 10
-63.07735
 20
-29.9
 30
0.0
 11
-65.0
 21
-29.9
 31
0.0
210
0.0
220
0.0
230
1.0
  0
LINE
  5
240
100
AcDbEntity
  8
0
370
    35
390
0
 62
     7
 48
0.014645
100
AcDbLine
 10
-12.0
 20
22.0
 30
0.0
 11
-12.585786
 21
22.0
 31
0.0
210
0.0
220
0.0
230
1.0
  0
LINE
  5
241
100
AcDbEntity
  8
0
370
    35
390
0
 62
     7
 48
0.014645
100
AcDbLine
 10
-12.0
 20
-22.0
 30
0.0
 11
-12.585786
 21
-22.0
 31
0.0
210
0.0
220
0.0
230
1.0
  0
ARC
  5
242
100
AcDbEntity
  8
0
370
    35
390
0
 62
     7
100
AcDbCircle
 10
-82.468911
 20
-29.5
 30
0.0
 40
1.0
210
0.0
220
0.0
230
1.0
100
AcDbArc
 50
210.0
 51
270.0
  0
ARC
  5
243
100
AcDbEntity
  8
0
370
    35
390
0
 62
     7
100
AcDbCircle
 10
-82.468911
 20
29.5
 30
0.0
 40
1.0
210
0.0
220
0.0
230
1.0
100
AcDbArc
 50
90.0
 51
150.0
  0
LINE
  5
244
100
AcDbEntity
  8
0
370
    35
390
0
 62
     7
 48
0.093819
100
AcDbLine
 10
-85.211325
 20
-26.75
 30
0.0
 11
-83.334936
 21
-30.0
 31
0.0
210
0.0
220
0.0
230
1.0
  0
LINE
  5
245
100
AcDbEntity
  8
0
370
    35
390
0
 62
     7
 48
0.093819
100
AcDbLine
 10
-85.211325
 20
26.75
 30
0.0
 11
-83.334936
 21
30.0
 31
0.0
210
0.0
220
0.0
230
1.0
  0
ARC
  5
246
100
AcDbEntity
  8
0
370
    35
390
0
 62
     7
100
AcDbCircle
 10
-86.07735
 20
-27.25
 30
0.0
 40
1.0
210
0.0
220
0.0
230
1.0
100
AcDbArc
 50
30.0
 51
90.0
  0
ARC
  5
247
100
AcDbEntity
  8
0
370
    35
390
0
 62
     7
100
AcDbCircle
 10
-86.07735
 20
27.25
 30
0.0
 40
1.0
210
0.0
220
0.0
230
1.0
100
AcDbArc
 50
270.0
 51
330.0
  0
LINE
  5
248
100
AcDbEntity
  8
0
370
    35
390
0
 62
     7
 48
0.256461
100
AcDbLine
 10
-96.335786
 20
-26.25
 30
0.0
 11
-86.07735
 21
-26.25
 31
0.0
210
0.0
220
0.0
230
1.0
  0
LINE
  5
249
100
AcDbEntity
  8
0
370
    35
390
0
 62
     7
 48
0.256461
100
AcDbLine
 10
-96.335786
 20
26.25
 30
0.0
 11
-86.07735
 21
26.25
 31
0.0
210
0.0
220
0.0
230
1.0
  0
ARC
  5
24A
100
AcDbEntity
  8
0
370
    35
390
0
 62
     7
100
AcDbCircle
 10
-96.335786
 20
-25.25
 30
0.0
 40
1.0
210
0.0
220
0.0
230
1.0
100
AcDbArc
 50
225.0
 51
270.0
  0
ARC
  5
24B
100
AcDbEntity
  8
0
370
    35
390
0
 62
     7
100
AcDbCircle
 10
-96.335786
 20
25.25
 30
0.0
 40
1.0
210
0.0
220
0.0
230
1.0
100
AcDbArc
 50
90.0
 51
135.0
  0
LINE
  5
24C
100
AcDbEntity
  8
0
370
    35
390
0
 62
     7
 48
0.12955
100
AcDbLine
 10
-100.707107
 20
-22.292893
 30
0.0
 11
-97.042893
 21
-25.957107
 31
0.0
210
0.0
220
0.0
230
1.0
  0
LINE
  5
24D
100
AcDbEntity
  8
0
370
    35
390
0
 62
     7
 48
0.12955
100
AcDbLine
 10
-100.707107
 20
22.292893
 30
0.0
 11
-97.042893
 21
25.957107
 31
0.0
210
0.0
220
0.0
230
1.0
  0
ARC
  5
24E
100
AcDbEntity
  8
0
370
    35
390
0
 62
     7
100
AcDbCircle
 10
-101.414214
 20
-23.0
 30
0.0
 40
1.0
210
0.0
220
0.0
230
1.0
100
AcDbArc
 50
45.0
 51
90.0
  0
ARC
  5
24F
100
AcDbEntity
  8
0
370
    35
390
0
 62
     7
100
AcDbCircle
 10
-101.414214
 20
23.0
 30
0.0
 40
1.0
210
0.0
220
0.0
230
1.0
100
AcDbArc
 50
270.0
 51
315.0
  0
LINE
  5
250
100
AcDbEntity
  8
0
370
    35
390
0
 62
     7
 48
0.424223
100
AcDbLine
 10
-82.468911
 20
30.5
 30
0.0
 11
-65.5
 21
30.5
 31
0.0
210
0.0
220
0.0
230
1.0
  0
LINE
  5
251
100
AcDbEntity
  8
0
370
    35
390
0
 62
     7
 48
0.424223
100
AcDbLine
 10
-82.468911
 20
-30.5
 30
0.0
 11
-65.5
 21
-30.5
 31
0.0
210
0.0
220
0.0
230
1.0
  0
LINE
  5
252
100
AcDbEntity
  8
0
370
    35
390
0
 62
     7
 48
0.017678
100
AcDbLine
 10
-65.0
 20
30.0
 30
0.0
 11
-65.5
 21
30.5
 31
0.0
210
0.0
220
0.0
230
1.0
  0
LINE
  5
253
100
AcDbEntity
  8
0
370
    35
390
0
 62
     7
 48
0.017678
100
AcDbLine
 10
-65.0
 20
-30.0
 30
0.0
 11
-65.5
 21
-30.5
 31
0.0
210
0.0
220
0.0
230
1.0
  0
LINE
  5
254
100
AcDbEntity
  8
0
370
    35
390
0
 62
     7
 48
0.164645
100
AcDbLine
 10
-108.0
 20
-22.0
 30
0.0
 11
-101.414214
 21
-22.0
 31
0.0
210
0.0
220
0.0
230
1.0
  0
LINE
  5
255
100
AcDbEntity
  8
0
370
    35
390
0
 62
     7
 48
0.164645
100
AcDbLine
 10
-108.0
 20
22.0
 30
0.0
 11
-101.414214
 21
22.0
 31
0.0
210
0.0
220
0.0
230
1.0
  0
ENDBLK
  5
256
100
AcDbEntity
  8
0
390
0
100
AcDbBlockEnd
  0
ENDSEC
  0
SECTION
  2
ENTITIES
  0
VIEWPORT
  5
64
100
AcDbEntity
 67
     1
  8
0
370
     0
390
0
 62
     0
 48
0.0
100
AcDbViewport
 10
0.0
 20
0.0
 30
0.0
 40
1000.0
 41
1000.0
 68
     1
 69
     1
 12
0.0
 22
0.0
 13
0.0
 23
0.0
 14
1.0
 24
1.0
 15
1.0
 25
1.0
 16
0.0
 26
0.0
 36
1.0
 17
0.0
 27
0.0
 37
0.0
 42
50.0
 43
0.0
 44
0.0
 45
1000.0
 50
0.0
 51
0.0
 72
   100
 90
        0
340
0
  1

281
     0
 71
     0
 74
     1
110
0.0
120
0.0
130
0.0
111
1.0
121
0.0
131
0.0
112
0.0
122
1.0
132
0.0
345
0
346
0
 79
     0
146
0.0
  0
LINE
  5
26
100
AcDbEntity
  8
0
370
    35
390
0
 62
     7
100
AcDbLine
 10
0.0
 20
0.0
 30
0.0
 11
210.0
 21
0.0
 31
0.0
210
0.0
220
0.0
230
1.0
  0
LINE
  5
27
100
AcDbEntity
  8
0
370
    35
390
0
 62
     7
100
AcDbLine
 10
210.0
 20
0.0
 30
0.0
 11
210.0
 21
297.0
 31
0.0
210
0.0
220
0.0
230
1.0
  0
LINE
  5
28
100
AcDbEntity
  8
0
370
    35
390
0
 62
     7
100
AcDbLine
 10
210.0
 20
297.0
 30
0.0
 11
0.0
 21
297.0
 31
0.0
210
0.0
220
0.0
230
1.0
  0
LINE
  5
29
100
AcDbEntity
  8
0
370
    35
390
0
 62
     7
100
AcDbLine
 10
0.0
 20
297.0
 30
0.0
 11
0.0
 21
0.0
 31
0.0
210
0.0
220
0.0
230
1.0
  0
LINE
  5
2A
100
AcDbEntity
  8
0
370
    35
390
0
 62
     7
100
AcDbLine
 10
20.0
 20
10.0
 30
0.0
 11
200.0
 21
10.0
 31
0.0
210
0.0
220
0.0
230
1.0
  0
LINE
  5
2B
100
AcDbEntity
  8
0
370
    35
390
0
 62
     7
100
AcDbLine
 10
200.0
 20
10.0
 30
0.0
 11
200.0
 21
287.0
 31
0.0
210
0.0
220
0.0
230
1.0
  0
LINE
  5
2C
100
AcDbEntity
  8
0
370
    35
390
0
 62
     7
100
AcDbLine
 10
200.0
 20
287.0
 30
0.0
 11
20.0
 21
287.0
 31
0.0
210
0.0
220
0.0
230
1.0
  0
LINE
  5
2D
100
AcDbEntity
  8
0
370
    35
390
0
 62
     7
100
AcDbLine
 10
20.0
 20
287.0
 30
0.0
 11
20.0
 21
10.0
 31
0.0
210
0.0
220
0.0
230
1.0
  0
LINE
  5
2E
100
AcDbEntity
  8
0
370
    13
390
0
 62
     7
 48
0.1
100
AcDbLine
 10
155.0
 20
287.0
 30
0.0
 11
155.0
 21
291.0
 31
0.0
210
0.0
220
0.0
230
1.0
  0
LINE
  5
2F
100
AcDbEntity
  8
0
370
    13
390
0
 62
     7
 48
0.1
100
AcDbLine
 10
200.0
 20
240.833333
 30
0.0
 11
204.0
 21
240.833333
 31
0.0
210
0.0
220
0.0
230
1.0
  0
LINE
  5
30
100
AcDbEntity
  8
0
370
    13
390
0
 62
     7
 48
0.1
100
AcDbLine
 10
200.0
 20
194.666667
 30
0.0
 11
204.0
 21
194.666667
 31
0.0
210
0.0
220
0.0
230
1.0
  0
LINE
  5
31
100
AcDbEntity
  8
0
370
    13
390
0
 62
     7
 48
0.1
100
AcDbLine
 10
200.0
 20
148.5
 30
0.0
 11
204.0
 21
148.5
 31
0.0
210
0.0
220
0.0
230
1.0
  0
LINE
  5
32
100
AcDbEntity
  8
0
370
    13
390
0
 62
     7
 48
0.1
100
AcDbLine
 10
200.0
 20
102.333333
 30
0.0
 11
204.0
 21
102.333333
 31
0.0
210
0.0
220
0.0
230
1.0
  0
LINE
  5
33
100
AcDbEntity
  8
0
370
    13
390
0
 62
     7
 48
0.1
100
AcDbLine
 10
200.0
 20
56.166667
 30
0.0
 11
204.0
 21
56.166667
 31
0.0
210
0.0
220
0.0
230
1.0
  0
LINE
  5
34
100
AcDbEntity
  8
0
370
    13
390
0
 62
     7
 48
0.1
100
AcDbLine
 10
110.0
 20
291.0
 30
0.0
 11
110.0
 21
287.0
 31
0.0
210
0.0
220
0.0
230
1.0
  0
LINE
  5
35
100
AcDbEntity
  8
0
370
    13
390
0
 62
     7
 48
0.1
100
AcDbLine
 10
65.0
 20
287.0
 30
0.0
 11
65.0
 21
291.0
 31
0.0
210
0.0
220
0.0
230
1.0
  0
LINE
  5
36
100
AcDbEntity
  8
0
370
    13
390
0
 62
     7
 48
0.1
100
AcDbLine
 10
16.0
 20
102.333333
 30
0.0
 11
20.0
 21
102.333333
 31
0.0
210
0.0
220
0.0
230
1.0
  0
LINE
  5
37
100
AcDbEntity
  8
0
370
    13
390
0
 62
     7
 48
0.1
100
AcDbLine
 10
16.0
 20
56.166667
 30
0.0
 11
20.0
 21
56.166667
 31
0.0
210
0.0
220
0.0
230
1.0
  0
LINE
  5
38
100
AcDbEntity
  8
0
370
    13
390
0
 62
     7
 48
0.1
100
AcDbLine
 10
16.0
 20
194.666667
 30
0.0
 11
20.0
 21
194.666667
 31
0.0
210
0.0
220
0.0
230
1.0
  0
LINE
  5
39
100
AcDbEntity
  8
0
370
    13
390
0
 62
     7
 48
0.1
100
AcDbLine
 10
16.0
 20
148.5
 30
0.0
 11
20.0
 21
148.5
 31
0.0
210
0.0
220
0.0
230
1.0
  0
LINE
  5
3A
100
AcDbEntity
  8
0
370
    13
390
0
 62
     7
 48
0.1
100
AcDbLine
 10
16.0
 20
240.833333
 30
0.0
 11
20.0
 21
240.833333
 31
0.0
210
0.0
220
0.0
230
1.0
  0
LINE
  5
3B
100
AcDbEntity
  8
0
370
    13
390
0
 62
     7
 48
0.1
100
AcDbLine
 10
155.0
 20
6.0
 30
0.0
 11
155.0
 21
10.0
 31
0.0
210
0.0
220
0.0
230
1.0
  0
LINE
  5
3C
100
AcDbEntity
  8
0
370
    13
390
0
 62
     7
 48
0.1
100
AcDbLine
 10
110.0
 20
10.0
 30
0.0
 11
110.0
 21
6.0
 31
0.0
210
0.0
220
0.0
230
1.0
  0
LINE
  5
3D
100
AcDbEntity
  8
0
370
    13
390
0
 62
     7
 48
0.1
100
AcDbLine
 10
65.0
 20
6.0
 30
0.0
 11
65.0
 21
10.0
 31
0.0
210
0.0
220
0.0
230
1.0
  0
LINE
  5
3E
100
AcDbEntity
  8
0
370
    13
390
0
 62
     7
 48
0.25
100
AcDbLine
 10
16.0
 20
148.5
 30
0.0
 11
6.0
 21
148.5
 31
0.0
210
0.0
220
0.0
230
1.0
  0
LINE
  5
3F
100
AcDbEntity
  8
0
370
    13
390
0
 62
     7
 48
0.141421
100
AcDbLine
 10
200.0
 20
287.0
 30
0.0
 11
204.0
 21
291.0
 31
0.0
210
0.0
220
0.0
230
1.0
  0
LINE
  5
40
100
AcDbEntity
  8
0
370
    13
390
0
 62
     7
 48
0.141421
100
AcDbLine
 10
20.0
 20
287.0
 30
0.0
 11
16.0
 21
291.0
 31
0.0
210
0.0
220
0.0
230
1.0
  0
LINE
  5
41
100
AcDbEntity
  8
0
370
    13
390
0
 62
     7
100
AcDbLine
 10
16.0
 20
291.0
 30
0.0
 11
204.0
 21
291.0
 31
0.0
210
0.0
220
0.0
230
1.0
  0
LINE
  5
42
100
AcDbEntity
  8
0
370
    13
390
0
 62
     7
100
AcDbLine
 10
204.0
 20
6.0
 30
0.0
 11
204.0
 21
291.0
 31
0.0
210
0.0
220
0.0
230
1.0
  0
LINE
  5
43
100
AcDbEntity
  8
0
370
    13
390
0
 62
     7
100
AcDbLine
 10
204.0
 20
6.0
 30
0.0
 11
16.0
 21
6.0
 31
0.0
210
0.0
220
0.0
230
1.0
  0
LINE
  5
44
100
AcDbEntity
  8
0
370
    13
390
0
 62
     7
100
AcDbLine
 10
16.0
 20
291.0
 30
0.0
 11
16.0
 21
6.0
 31
0.0
210
0.0
220
0.0
230
1.0
  0
LINE
  5
45
100
AcDbEntity
  8
0
370
    13
390
0
 62
     7
 48
0.141421
100
AcDbLine
 10
20.0
 20
10.0
 30
0.0
 11
16.0
 21
6.0
 31
0.0
210
0.0
220
0.0
230
1.0
  0
LINE
  5
46
100
AcDbEntity
  8
0
370
    13
390
0
 62
     7
 48
0.1
100
AcDbLine
 10
200.0
 20
10.0
 30
0.0
 11
204.0
 21
10.0
 31
0.0
210
0.0
220
0.0
230
1.0
  0
LINE
  5
47
100
AcDbEntity
  8
0
370
    13
390
0
 62
     7
 48
0.1
100
AcDbLine
 10
200.0
 20
10.0
 30
0.0
 11
200.0
 21
6.0
 31
0.0
210
0.0
220
0.0
230
1.0
  0
LINE
  5
48
100
AcDbEntity
  8
0
370
    35
390
0
 62
     7
100
AcDbLine
 10
20.0
 20
31.5
 30
0.0
 11
20.0
 21
10.0
 31
0.0
210
0.0
220
0.0
230
1.0
  0
LINE
  5
49
100
AcDbEntity
  8
0
370
    35
390
0
 62
     7
100
AcDbLine
 10
71.0
 20
31.5
 30
0.0
 11
71.0
 21
10.0
 31
0.0
210
0.0
220
0.0
230
1.0
  0
LINE
  5
4A
100
AcDbEntity
  8
0
370
    13
390
0
 62
   252
100
AcDbLine
 10
148.312393
 20
18.5
 30
0.0
 11
199.5
 21
18.5
 31
0.0
210
0.0
220
0.0
230
1.0
  0
LINE
  5
4B
100
AcDbEntity
  8
0
370
    35
390
0
 62
     7
 48
0.3375
100
AcDbLine
 10
147.812393
 20
18.0
 30
0.0
 11
147.812393
 21
31.5
 31
0.0
210
0.0
220
0.0
230
1.0
  0
LINE
  5
4C
100
AcDbEntity
  8
0
370
    35
390
0
 62
     7
100
AcDbLine
 10
20.0
 20
31.5
 30
0.0
 11
200.0
 21
31.5
 31
0.0
210
0.0
220
0.0
230
1.0
  0
LINE
  5
4D
100
AcDbEntity
  8
0
370
    35
390
0
 62
     7
100
AcDbLine
 10
147.812393
 20
31.5
 30
0.0
 11
200.0
 21
31.5
 31
0.0
210
0.0
220
0.0
230
1.0
  0
LINE
  5
4E
100
AcDbEntity
  8
0
370
    35
390
0
 62
     7
100
AcDbLine
 10
147.812393
 20
18.0
 30
0.0
 11
198.5
 21
18.0
 31
0.0
210
0.0
220
0.0
230
1.0
  0
LINE
  5
4F
100
AcDbEntity
  8
0
370
    35
390
0
 62
     7
 48
0.325
100
AcDbLine
 10
187.0
 20
18.0
 30
0.0
 11
200.0
 21
18.0
 31
0.0
210
0.0
220
0.0
230
1.0
  0
LINE
  5
50
100
AcDbEntity
  8
0
370
    13
390
0
 62
     7
100
AcDbLine
 10
148.312393
 20
31.0
 30
0.0
 11
199.5
 21
31.0
 31
0.0
210
0.0
220
0.0
230
1.0
  0
LINE
  5
51
100
AcDbEntity
  8
0
370
    13
390
0
 62
     7
 48
0.3125
100
AcDbLine
 10
199.5
 20
31.0
 30
0.0
 11
199.5
 21
18.5
 31
0.0
210
0.0
220
0.0
230
1.0
  0
LINE
  5
52
100
AcDbEntity
  8
0
370
    13
390
0
 62
     7
 48
0.3125
100
AcDbLine
 10
148.312393
 20
18.5
 30
0.0
 11
148.312393
 21
31.0
 31
0.0
210
0.0
220
0.0
230
1.0
  0
LINE
  5
53
100
AcDbEntity
  8
0
370
    35
390
0
 62
     7
100
AcDbLine
 10
147.812393
 20
18.0
 30
0.0
 11
71.0
 21
18.0
 31
0.0
210
0.0
220
0.0
230
1.0
  0
LINE
  5
54
100
AcDbEntity
  8
0
370
    35
390
0
 62
     7
100
AcDbLine
 10
20.0
 20
10.0
 30
0.0
 11
200.0
 21
10.0
 31
0.0
210
0.0
220
0.0
230
1.0
  0
LINE
  5
55
100
AcDbEntity
  8
0
370
    35
390
0
 62
     7
100
AcDbLine
 10
200.0
 20
10.0
 30
0.0
 11
200.0
 21
31.5
 31
0.0
210
0.0
220
0.0
230
1.0
  0
DIMENSION
  5
57
100
AcDbEntity
  8
0
370
     0
390
0
 62
     0
100
AcDbDimension
  2
*D28
 10
51.284554
 20
247.883316
 30
0.0
 11
111.284554
 21
247.883316
 31
0.0
 70
   161
 71
     5
 72
     1
 41
1.0
 42
0.0
210
0.0
220
0.0
230
1.0
 52
89.999523
  3
STANDARD
100
AcDbAlignedDimension
 13
171.284554
 23
226.862958
 33
0.0
 14
51.284554
 24
226.862958
 34
0.0
  0
DIMENSION
  5
59
100
AcDbEntity
  8
0
370
     0
390
0
 62
     0
100
AcDbDimension
  2
*D29
 10
43.037727
 20
226.09245
 30
0.0
 11
43.037727
 21
209.54245
 31
0.0
 70
   161
 71
     5
 72
     1
 41
1.0
 42
0.0
210
0.0
220
0.0
230
1.0
 52
89.999523
  1
G1" ISO 228/1
  3
STANDARD
100
AcDbAlignedDimension
 13
51.284554
 23
192.99245
 33
0.0
 14
51.284554
 24
226.09245
 34
0.0
  0
DIMENSION
  5
5B
100
AcDbEntity
  8
0
370
     0
390
0
 62
     0
100
AcDbDimension
  2
*D30
 10
183.172066
 20
226.09245
 30
0.0
 11
183.172066
 21
209.54245
 31
0.0
 70
   161
 71
     5
 72
     1
 41
1.0
 42
0.0
210
0.0
220
0.0
230
1.0
 52
89.999523
  1
G1" ISO 228/1
  3
STANDARD
100
AcDbAlignedDimension
 13
171.284554
 23
192.99245
 33
0.0
 14
171.284554
 24
226.09245
 34
0.0
  0
LINE
  5
5C
100
AcDbEntity
  8
0
370
    13
390
0
  6
DASHDOT
 62
     7
100
AcDbLine
 10
47.853676
 20
209.54245
 30
0.0
 11
174.71543
 21
209.54245
 31
0.0
210
0.0
220
0.0
230
1.0
  0
DIMENSION
  5
5E
100
AcDbEntity
  8
0
370
     0
390
0
 62
     0
100
AcDbDimension
  2
*D32
 10
43.037727
 20
140.392273
 30
0.0
 11
43.037727
 21
121.247965
 31
0.0
 70
   161
 71
     5
 72
     1
 41
1.0
 42
0.0
210
0.0
220
0.0
230
1.0
 52
89.999523
  1
Es.Ch.<>( \U+00D844 )
  3
STANDARD
100
AcDbAlignedDimension
 13
52.439254
 23
100.392273
 33
0.0
 14
52.439254
 24
140.392273
 34
0.0
  0
DIMENSION
  5
60
100
AcDbEntity
  8
0
370
     0
390
0
 62
     0
100
AcDbDimension
  2
*D33
 10
183.172066
 20
140.392273
 30
0.0
 11
183.172066
 21
121.247965
 31
0.0
 70
   161
 71
     5
 72
     1
 41
1.0
 42
0.0
210
0.0
220
0.0
230
1.0
 52
89.999523
  1
Es.Ch.<>( \U+00D844 )
  3
STANDARD
100
AcDbAlignedDimension
 13
170.129853
 23
100.392273
 33
0.0
 14
170.129853
 24
140.392273
 34
0.0
  0
DIMENSION
  5
62
100
AcDbEntity
  8
0
370
     0
390
0
 62
     0
100
AcDbDimension
  2
*D34
 10
33.712639
 20
150.892273
 30
0.0
 11
33.712639
 21
120.392273
 31
0.0
 70
   161
 71
     5
 72
     1
 41
1.0
 42
0.0
210
0.0
220
0.0
230
1.0
 52
89.999523
  1
%%c<>
  3
STANDARD
100
AcDbAlignedDimension
 13
88.815642
 23
89.892273
 33
0.0
 14
88.815642
 24
150.892273
 34
0.0
  0
LINE
  5
63
100
AcDbEntity
  8
0
370
    13
390
0
  6
DASHDOT
 62
     7
100
AcDbLine
 10
46.014137
 20
120.392273
 30
0.0
 11
176.554968
 21
120.392273
 31
0.0
210
0.0
220
0.0
230
1.0
  0
INSERT
  5
257
100
AcDbEntity
  8
0
370
     0
390
0
100
AcDbBlockReference
  2
BLOCK1
 10
0.0
 20
0.0
 30
0.0
210
0.0
220
0.0
230
1.0
  0
INSERT
  5
258
100
AcDbEntity
  8
0
370
     0
390
0
100
AcDbBlockReference
  2
BLOCK2
 10
0.0
 20
0.0
 30
0.0
210
0.0
220
0.0
230
1.0
  0
INSERT
  5
259
100
AcDbEntity
  8
0
370
     0
390
0
100
AcDbBlockReference
  2
BLOCK3
 10
0.0
 20
0.0
 30
0.0
210
0.0
220
0.0
230
1.0
  0
INSERT
  5
25A
100
AcDbEntity
  8
0
370
     0
390
0
100
AcDbBlockReference
  2
BLOCK4
 10
0.0
 20
0.0
 30
0.0
210
0.0
220
0.0
230
1.0
  0
INSERT
  5
25B
100
AcDbEntity
  8
0
370
     0
390
0
100
AcDbBlockReference
  2
BLOCK5
 10
0.0
 20
0.0
 30
0.0
210
0.0
220
0.0
230
1.0
  0
INSERT
  5
25C
100
AcDbEntity
  8
0
370
     0
390
0
100
AcDbBlockReference
  2
BLOCK6
 10
0.0
 20
0.0
 30
0.0
210
0.0
220
0.0
230
1.0
  0
INSERT
  5
25D
100
AcDbEntity
  8
0
370
     0
390
0
100
AcDbBlockReference
  2
BLOCK7
 10
0.0
 20
0.0
 30
0.0
210
0.0
220
0.0
230
1.0
  0
INSERT
  5
25E
100
AcDbEntity
  8
0
370
     0
390
0
100
AcDbBlockReference
  2
BLOCK8
 10
0.0
 20
0.0
 30
0.0
210
0.0
220
0.0
230
1.0
  0
INSERT
  5
25F
100
AcDbEntity
  8
0
370
     0
390
0
100
AcDbBlockReference
  2
BLOCK9
 10
0.0
 20
0.0
 30
0.0
210
0.0
220
0.0
230
1.0
  0
INSERT
  5
260
100
AcDbEntity
  8
0
370
     0
390
0
100
AcDbBlockReference
  2
BLOCK10
 10
0.0
 20
0.0
 30
0.0
210
0.0
220
0.0
230
1.0
  0
INSERT
  5
261
100
AcDbEntity
  8
0
370
     0
390
0
100
AcDbBlockReference
  2
BLOCK11
 10
0.0
 20
0.0
 30
0.0
210
0.0
220
0.0
230
1.0
  0
INSERT
  5
262
100
AcDbEntity
  8
0
370
     0
390
0
100
AcDbBlockReference
  2
BLOCK12
 10
0.0
 20
0.0
 30
0.0
210
0.0
220
0.0
230
1.0
  0
INSERT
  5
263
100
AcDbEntity
  8
0
370
     0
390
0
100
AcDbBlockReference
  2
BLOCK13
 10
0.0
 20
0.0
 30
0.0
210
0.0
220
0.0
230
1.0
  0
INSERT
  5
264
100
AcDbEntity
  8
0
370
     0
390
0
100
AcDbBlockReference
  2
BLOCK14
 10
0.0
 20
0.0
 30
0.0
210
0.0
220
0.0
230
1.0
  0
INSERT
  5
265
100
AcDbEntity
  8
0
370
     0
390
0
100
AcDbBlockReference
  2
BLOCK15
 10
0.0
 20
0.0
 30
0.0
210
0.0
220
0.0
230
1.0
  0
INSERT
  5
266
100
AcDbEntity
  8
0
370
     0
390
0
100
AcDbBlockReference
  2
BLOCK16
 10
0.0
 20
0.0
 30
0.0
210
0.0
220
0.0
230
1.0
  0
INSERT
  5
267
100
AcDbEntity
  8
0
370
     0
390
0
100
AcDbBlockReference
  2
BLOCK17
 10
0.0
 20
0.0
 30
0.0
210
0.0
220
0.0
230
1.0
  0
INSERT
  5
268
100
AcDbEntity
  8
0
370
     0
390
0
100
AcDbBlockReference
  2
BLOCK18
 10
0.0
 20
0.0
 30
0.0
210
0.0
220
0.0
230
1.0
  0
INSERT
  5
269
100
AcDbEntity
  8
0
370
     0
390
0
100
AcDbBlockReference
  2
BLOCK19
 10
0.0
 20
0.0
 30
0.0
210
0.0
220
0.0
230
1.0
  0
INSERT
  5
26A
100
AcDbEntity
  8
0
370
     0
390
0
100
AcDbBlockReference
  2
BLOCK20
 10
0.0
 20
0.0
 30
0.0
210
0.0
220
0.0
230
1.0
  0
INSERT
  5
26B
100
AcDbEntity
  8
0
370
     0
390
0
100
AcDbBlockReference
  2
BLOCK21
 10
0.0
 20
0.0
 30
0.0
210
0.0
220
0.0
230
1.0
  0
INSERT
  5
26C
100
AcDbEntity
  8
0
370
     0
390
0
100
AcDbBlockReference
  2
BLOCK22
 10
0.0
 20
0.0
 30
0.0
210
0.0
220
0.0
230
1.0
  0
INSERT
  5
26D
100
AcDbEntity
  8
0
370
     0
390
0
100
AcDbBlockReference
  2
BLOCK23
 10
0.0
 20
0.0
 30
0.0
210
0.0
220
0.0
230
1.0
  0
INSERT
  5
26E
100
AcDbEntity
  8
0
370
     0
390
0
100
AcDbBlockReference
  2
BLOCK24
 10
0.0
 20
0.0
 30
0.0
210
0.0
220
0.0
230
1.0
  0
INSERT
  5
26F
100
AcDbEntity
  8
0
370
     0
390
0
100
AcDbBlockReference
  2
BLOCK25
 10
0.0
 20
0.0
 30
0.0
210
0.0
220
0.0
230
1.0
  0
INSERT
  5
270
100
AcDbEntity
  8
0
370
     0
390
0
100
AcDbBlockReference
  2
BLOCK26
 10
0.0
 20
0.0
 30
0.0
210
0.0
220
0.0
230
1.0
  0
INSERT
  5
271
100
AcDbEntity
  8
0
370
     0
390
0
100
AcDbBlockReference
  2
BLOCK27
 10
0.0
 20
0.0
 30
0.0
210
0.0
220
0.0
230
1.0
  0
INSERT
  5
272
100
AcDbEntity
  8
0
370
     0
390
0
100
AcDbBlockReference
  2
BLOCK28
 10
0.0
 20
0.0
 30
0.0
210
0.0
220
0.0
230
1.0
  0
INSERT
  5
273
100
AcDbEntity
  8
0
370
     0
390
0
100
AcDbBlockReference
  2
BLOCK29
 10
171.284554
 20
209.54245
 30
0.0
210
0.0
220
0.0
230
1.0
  0
INSERT
  5
274
100
AcDbEntity
  8
0
370
     0
390
0
100
AcDbBlockReference
  2
BLOCK30
 10
171.284554
 20
120.392273
 30
0.0
210
0.0
220
0.0
230
1.0
  0
ENDSEC
  0
SECTION
  2
OBJECTS
  0
DICTIONARY
  5
19
100
AcDbDictionary
280
     0
281
     1
  3
ACAD_GROUP
350
1A
  3
ACAD_MLINESTYLE
350
1B
  3
ACAD_LAYOUT
350
1E
  3
ACAD_PLOTSETTINGS
350
22
  3
ACAD_PLOTSTYLENAME
350
1F
  3
ACAD_WIPEOUT_VARS
350
23
  0
DICTIONARY
  5
1A
102
{ACAD_REACTORS
330
19
102
}
100
AcDbDictionary
280
     0
281
     1
  0
DICTIONARY
  5
1B
102
{ACAD_REACTORS
330
19
102
}
100
AcDbDictionary
280
     0
281
     1
  3
Standard
350
1C
  0
MLINESTYLE
  5
1C
102
{ACAD_REACTORS
330
1B
102
}
100
AcDbMlineStyle
  2
Standard
 70
     0
  3

 62
     0
 51
90.0
 52
90.0
 71
     2
 49
0.5
 62
   256
  6
ByLayer
 49
-0.5
 62
   256
  6
ByLayer
  0
ACDBDICTIONARYWDFLT
  5
1F
102
{ACAD_REACTORS
330
19
102
}
100
AcDbDictionary
281
     1
  3
Normal
350
1D
100
AcDbDictionaryWithDefault
340
1D
  0
ACDBPLACEHOLDER
  5
1D
102
{ACAD_REACTORS
330
1F
102
}
  0
LAYOUT
  5
20
102
{ACAD_REACTORS
330
1E
102
}
100
AcDbPlotSettings
  1

  2

  4

  6

 40
0.0
 41
0.0
 42
0.0
 43
0.0
 44
0.0
 45
0.0
 46
0.0
 47
0.0
 48
0.0
 49
0.0
140
0.0
141
0.0
142
1.0
143
1.0
 70
  1024
 72
     0
 73
     0
 74
     0
  7

 75
     0
147
1.0
148
0.0
149
0.0
100
AcDbLayout
  1
Model
 70
     0
 71
     0
 10
0.0
 20
0.0
 11
0.0
 21
0.0
 12
0.0
 22
0.0
 32
0.0
 14
0.0
 24
0.0
 34
0.0
 15
0.0
 25
0.0
 35
0.0
146
0.0
 13
0.0
 23
0.0
 33
0.0
 16
0.0
 26
0.0
 36
0.0
 17
0.0
 27
0.0
 37
0.0
 76
     0
330
A
331
0
345
0
346
0
  0
LAYOUT
  5
21
102
{ACAD_REACTORS
330
1E
102
}
100
AcDbPlotSettings
  1

  2

  4

  6

 40
0.0
 41
0.0
 42
0.0
 43
0.0
 44
0.0
 45
0.0
 46
0.0
 47
0.0
 48
0.0
 49
0.0
140
0.0
141
0.0
142
1.0
143
1.0
 70
     0
 72
     0
 73
     0
 74
     0
  7

 75
     0
147
1.0
148
0.0
149
0.0
100
AcDbLayout
  1
Layout1
 70
     0
 71
     0
 10
0.0
 20
0.0
 11
0.0
 21
0.0
 12
0.0
 22
0.0
 32
0.0
 14
0.0
 24
0.0
 34
0.0
 15
0.0
 25
0.0
 35
0.0
146
0.0
 13
0.0
 23
0.0
 33
0.0
 16
0.0
 26
0.0
 36
0.0
 17
0.0
 27
0.0
 37
0.0
 76
     0
330
B
331
0
345
0
346
0
  0
DICTIONARY
  5
1E
102
{ACAD_REACTORS
330
19
102
}
100
AcDbDictionary
280
     0
281
     1
  3
Layout1
350
21
  3
Model
350
20
  0
DICTIONARY
  5
22
102
{ACAD_REACTORS
330
19
102
}
100
AcDbDictionary
280
     0
281
     1
  0
WIPEOUTVARIABLES
  5
23
100
AcDbWipeoutVariables
 70
     1
  0
ENDSEC
  0
EOF
