  0
SECTION
  2
HEADER
  9
$ACADVER
  1
AC1015
  9
$ACADMAINTVER
 70
     6
  9
$DWGCODEPAGE
  3
ANSI_1252
  9
$INSBASE
 10
0.0
 20
0.0
 30
0.0
  9
$EXTMIN
 10
0.0
 20
0.0
 30
0.0
  9
$EXTMAX
 10
222.50589
 20
291.887451
 30
2.0
  9
$LIMMIN
 10
0.0
 20
0.0
  9
$LIMMAX
 10
420.0
 20
297.0
  9
$ORTHOMODE
 70
     0
  9
$REGENMODE
 70
     1
  9
$FILLMODE
 70
     1
  9
$QTEXTMODE
 70
     0
  9
$MIRRTEXT
 70
     1
  9
$LTSCALE
 40
1.0
  9
$ATTMODE
 70
     1
  9
$TEXTSIZE
 40
2.5
  9
$TRACEWID
 40
1.0
  9
$TEXTSTYLE
  7
STANDARD
  9
$CLAYER
  8
0
  9
$CELTYPE
  6
ByLayer
  9
$CECOLOR
 62
   256
  9
$CELTSCALE
 40
1.0
  9
$DISPSILH
 70
     0
  9
$DIMSCALE
 40
1.0
  9
$DIMASZ
 40
2.5
  9
$DIMEXO
 40
0.625
  9
$DIMDLI
 40
3.75
  9
$DIMRND
 40
0.0
  9
$DIMDLE
 40
0.0
  9
$DIMEXE
 40
1.25
  9
$DIMTP
 40
0.0
  9
$DIMTM
 40
0.0
  9
$DIMTXT
 40
2.5
  9
$DIMCEN
 40
2.5
  9
$DIMTSZ
 40
0.0
  9
$DIMTOL
 70
     0
  9
$DIMLIM
 70
     0
  9
$DIMTIH
 70
     0
  9
$DIMTOH
 70
     0
  9
$DIMSE1
 70
     0
  9
$DIMSE2
 70
     0
  9
$DIMTAD
 70
     1
  9
$DIMZIN
 70
     8
  9
$DIMBLK
  1

  9
$DIMASO
 70
     1
  9
$DIMSHO
 70
     1
  9
$DIMPOST
  1

  9
$DIMAPOST
  1

  9
$DIMALT
 70
     0
  9
$DIMALTD
 70
     3
  9
$DIMALTF
 40
0.03937
  9
$DIMLFAC
 40
1.0
  9
$DIMTOFL
 70
     1
  9
$DIMTVP
 40
0.0
  9
$DIMTIX
 70
     0
  9
$DIMSOXD
 70
     0
  9
$DIMSAH
 70
     0
  9
$DIMBLK1
  1

  9
$DIMBLK2
  1

  9
$DIMSTYLE
  2
STANDARD
  9
$DIMCLRD
 70
     0
  9
$DIMCLRE
 70
     0
  9
$DIMCLRT
 70
     0
  9
$DIMTFAC
 40
1.0
  9
$DIMGAP
 40
0.625
  9
$DIMJUST
 70
     0
  9
$DIMSD1
 70
     0
  9
$DIMSD2
 70
     0
  9
$DIMTOLJ
 70
     0
  9
$DIMTZIN
 70
     8
  9
$DIMALTZ
 70
     0
  9
$DIMALTTZ
 70
     0
  9
$DIMUPT
 70
     0
  9
$DIMDEC
 70
     2
  9
$DIMTDEC
 70
     2
  9
$DIMALTU
 70
     2
  9
$DIMALTTD
 70
     3
  9
$DIMTXSTY
  7
STANDARD
  9
$DIMAUNIT
 70
     0
  9
$DIMADEC
 70
     0
  9
$DIMALTRND
 40
0.0
  9
$DIMAZIN
 70
     0
  9
$DIMDSEP
 70
    44
  9
$DIMATFIT
 70
     0
  9
$DIMFRAC
 70
     0
  9
$DIMLDRBLK
  1

  9
$DIMLUNIT
 70
     2
  9
$DIMLWD
 70
    -2
  9
$DIMLWE
 70
    -2
  9
$DIMTMOVE
 70
     0
  9
$LUNITS
 70
     2
  9
$LUPREC
 70
     4
  9
$SKETCHINC
 40
1.0
  9
$FILLETRAD
 40
2.5
  9
$AUNITS
 70
     0
  9
$AUPREC
 70
     0
  9
$MENU
  1
.
  9
$ELEVATION
 40
0.0
  9
$PELEVATION
 40
0.0
  9
$THICKNESS
 40
0.0
  9
$LIMCHECK
 70
     0
  9
$CHAMFERA
 40
2.5
  9
$CHAMFERB
 40
2.5
  9
$CHAMFERC
 40
0.0
  9
$CHAMFERD
 40
0.0
  9
$SKPOLY
 70
     0
  9
$TDCREATE
 40
0.000000000
  9
$TDUCREATE
 40
0.000000000
  9
$TDUPDATE
 40
0.000000000
  9
$TDUUPDATE
 40
0.000000000
  9
$TDINDWG
 40
0.0000000000
  9
$TDUSRTIMER
 40
0.0000000000
  9
$USRTIMER
 70
     1
  9
$ANGBASE
 50
0.0
  9
$ANGDIR
 70
     0
  9
$PDMODE
 70
     0
  9
$PDSIZE
 40
0.0
  9
$PLINEWID
 40
0.0
  9
$SPLFRAME
 70
     0
  9
$SPLINETYPE
 70
     6
  9
$SPLINESEGS
 70
     8
  9
$HANDSEED
  5
28C
  9
$SURFTAB1
 70
     6
  9
$SURFTAB2
 70
     6
  9
$SURFTYPE
 70
     6
  9
$SURFU
 70
     6
  9
$SURFV
 70
     6
  9
$UCSBASE
  2

  9
$UCSNAME
  2

  9
$UCSORG
 10
0.0
 20
0.0
 30
0.0
  9
$UCSXDIR
 10
1.0
 20
0.0
 30
0.0
  9
$UCSYDIR
 10
0.0
 20
1.0
 30
0.0
  9
$UCSORTHOREF
  2

  9
$UCSORTHOVIEW
 70
     1
  9
$UCSORGTOP
 10
0.0
 20
0.0
 30
0.0
  9
$UCSORGBOTTOM
 10
0.0
 20
0.0
 30
0.0
  9
$UCSORGLEFT
 10
0.0
 20
0.0
 30
0.0
  9
$UCSORGRIGHT
 10
0.0
 20
0.0
 30
0.0
  9
$UCSORGFRONT
 10
0.0
 20
0.0
 30
0.0
  9
$UCSORGBACK
 10
0.0
 20
0.0
 30
0.0
  9
$PUCSBASE
  2

  9
$PUCSNAME
  2

  9
$PUCSORG
 10
0.0
 20
0.0
 30
0.0
  9
$PUCSXDIR
 10
1.0
 20
0.0
 30
0.0
  9
$PUCSYDIR
 10
0.0
 20
1.0
 30
0.0
  9
$PUCSORTHOREF
  2

  9
$PUCSORTHOVIEW
 70
     0
  9
$PUCSORGTOP
 10
0.0
 20
0.0
 30
0.0
  9
$PUCSORGBOTTOM
 10
0.0
 20
0.0
 30
0.0
  9
$PUCSORGLEFT
 10
0.0
 20
0.0
 30
0.0
  9
$PUCSORGRIGHT
 10
0.0
 20
0.0
 30
0.0
  9
$PUCSORGFRONT
 10
0.0
 20
0.0
 30
0.0
  9
$PUCSORGBACK
 10
0.0
 20
0.0
 30
0.0
  9
$USERI1
 70
     0
  9
$USERI2
 70
     0
  9
$USERI3
 70
     0
  9
$USERI4
 70
     0
  9
$USERI5
 70
     0
  9
$USERR1
 40
0.0
  9
$USERR2
 40
0.0
  9
$USERR3
 40
0.0
  9
$USERR4
 40
0.0
  9
$USERR5
 40
0.0
  9
$WORLDVIEW
 70
     1
  9
$SHADEDGE
 70
     3
  9
$SHADEDIF
 70
    70
  9
$TILEMODE
 70
     1
  9
$MAXACTVP
 70
    48
  9
$PINSBASE
 10
0.0
 20
0.0
 30
0.0
  9
$PLIMCHECK
 70
     0
  9
$PEXTMIN
 10
0.0
 20
0.0
 30
0.0
  9
$PEXTMAX
 10
222.50589
 20
291.887451
 30
2.0
  9
$PLIMMIN
 10
0.0
 20
0.0
  9
$PLIMMAX
 10
420.0
 20
297.0
  9
$UNITMODE
 70
     0
  9
$VISRETAIN
 70
     0
  9
$PLINEGEN
 70
     0
  9
$PSLTSCALE
 70
     1
  9
$TREEDEPTH
 70
  3020
  9
$CMLSTYLE
  2
Standard
  9
$CMLJUST
 70
     0
  9
$CMLSCALE
 40
20.0
  9
$PROXYGRAPHICS
 70
     1
  9
$MEASUREMENT
 70
     1
  9
$CELWEIGHT
370
    -1
  9
$ENDCAPS
280
     0
  9
$JOINSTYLE
280
     0
  9
$LWDISPLAY
290
     0
  9
$INSUNITS
 70
     0
  9
$HYPERLINKBASE
  1

  9
$STYLESHEET
  1

  9
$XEDIT
290
     1
  9
$CEPSNTYPE
380
     0
  9
$PSTYLEMODE
290
     0
  9
$FINGERPRINTGUID
  2

  9
$VERSIONGUID
  2

  9
$EXTNAMES
290
     0
  9
$PSVPSCALE
 40
0.0
  0
ENDSEC
  0
SECTION
  2
CLASSES
  0
CLASS
  1
LWPOLYLINE
  2
AcDbPolyline
  3
AutoCAD 2000
 90
        0
280
     0
281
     1
  0
CLASS
  1
IMAGE
  2
AcDbRasterImage
  3
ISM
 90
      127
280
     0
281
     1
  0
CLASS
  1
OLE2FRAME
  2
AcDbOle2Frame
  3
AutoCAD 2000
 90
        0
280
     0
281
     1
  0
CLASS
  1
HATCH
  2
AcDbHatch
  3
AutoCAD 2000
 90
        0
280
     0
281
     1
  0
CLASS
  1
DICTIONARYVAR
  2
AcDbDictionaryVar
  3
AutoCAD 2000
 90
        0
280
     0
281
     0
  0
CLASS
  1
RASTERVARIABLES
  2
AcDbRasterVariables
  3
ISM
 90
        0
280
     0
281
     0
  0
CLASS
  1
IMAGEDEF
  2
AcDbRasterImageDef
  3
ISM
 90
        0
280
     0
281
     0
  0
CLASS
  1
IMAGEDEF_REACTOR
  2
AcDbRasterImageDefReactor
  3
ISM
 90
        1
280
     0
281
     0
  0
CLASS
  1
IDBUFFER
  2
AcDbIdBuffer
  3
AutoCAD 2000
 90
        0
280
     0
281
     0
  0
CLASS
  1
SPATIAL_FILTER
  2
AcDbSpatialFilter
  3
AutoCAD 2000
 90
        0
280
     0
281
     0
  0
CLASS
  1
XRECORD
  2
AcDbXrecord
  3
AutoCAD 2000
 90
        0
280
     0
281
     0
  0
CLASS
  1
SORTENTSTABLE
  2
AcDbSortentsTable
  3
AutoCAD 2000
 90
        0
280
     0
281
     0
  0
CLASS
  1
LAYER_INDEX
  2
AcDbLayerIndex
  3
AutoCAD 2000
 90
        0
280
     0
281
     0
  0
CLASS
  1
SPATIAL_INDEX
  2
AcDbSpatialIndex
  3
AutoCAD 2000
 90
        0
280
     0
281
     0
  0
CLASS
  1
OBJECT_PTR
  2
CAseDLPNTableRecord
  3
"ASE-LPNTableRecord"
 90
        1
280
     0
281
     0
  0
CLASS
  1
LAYOUT
  2
AcDbLayout
  3
AutoCAD 2000
 90
        0
280
     0
281
     0
  0
CLASS
  1
PLOTSETTINGS
  2
AcDbPlotSettings
  3
AutoCAD 2000
 90
        0
280
     0
281
     0
  0
CLASS
  1
ACDBDICTIONARYWDFLT
  2
AcDbDictionaryWithDefault
  3
AutoCAD 2000
 90
        0
280
     0
281
     0
  0
CLASS
  1
ACDBPLACEHOLDER
  2
AcDbPlaceHolder
  3
AutoCAD 2000
 90
        0
280
     0
281
     0
  0
CLASS
  1
VBA_PROJECT
  2
AcDbVbaProject
  3
acadvba
 90
        0
280
     0
281
     0
  0
CLASS
  1
WIPEOUT
  2
AcDbWipeout
  3
WipeOut|AutoCAD Express Tool|expresstools@autodesk.com
 90
      127
280
     0
281
     1
  0
CLASS
  1
WIPEOUTVARIABLES
  2
AcDbWipeoutVariables
  3
WipeOut|AutoCAD Express Tool|expresstools@autodesk.com
 90
        0
280
     0
281
     0
  0
CLASS
  1
RTEXT
  2
RText
  3
RText|AutoCAD Express Tool|expresstools@autodesk.com
 90
        0
280
     0
281
     1
  0
CLASS
  1
ARCALIGNEDTEXT
  2
AcDbArcAlignedText
  3
ATEXT|AutoCAD Express Tool|expresstools@autodesk.com
 90
        0
280
     0
281
     1
  0
ENDSEC
  0
SECTION
  2
TABLES
  0
TABLE
  2
VPORT
  5
7
100
AcDbSymbolTable
 70
     1
  0
VPORT
  5
15
100
AcDbSymbolTableRecord
100
AcDbViewportTableRecord
  2
*ACTIVE
 70
     0
 10
0.0
 20
0.0
 11
1.0
 21
1.0
 12
6.591288
 22
4.579184
 13
0.0
 23
0.0
 14
1.0
 24
1.0
 15
0.0
 25
0.0
 16
0.0
 26
0.0
 36
1.0
 17
0.0
 27
0.0
 37
0.0
 40
9.158369
 41
0.688564
 42
50.0
 43
0.0
 44
0.0
 50
0.0
 51
0.0
 71
     0
 72
   100
 73
     1
 74
     1
 75
     0
 76
     0
 77
     0
 78
     0
281
     0
 65
     0
110
0.0
120
0.0
130
0.0
111
1.0
121
0.0
131
0.0
112
0.0
122
1.0
132
0.0
345
0
346
0
 79
     0
146
0.0
  0
ENDTAB
  0
TABLE
  2
LTYPE
  5
4
100
AcDbSymbolTable
 70
     4
  0
LTYPE
  5
11
100
AcDbSymbolTableRecord
100
AcDbLinetypeTableRecord
  2
ByBlock
 70
    64
  3

 72
    65
 73
     0
 40
0.0
  0
LTYPE
  5
12
100
AcDbSymbolTableRecord
100
AcDbLinetypeTableRecord
  2
ByLayer
 70
    64
  3

 72
    65
 73
     0
 40
0.0
  0
LTYPE
  5
13
100
AcDbSymbolTableRecord
100
AcDbLinetypeTableRecord
  2
Continuous
 70
    64
  3
Solid line
 72
    65
 73
     0
 40
0.0
  0
LTYPE
  5
24
100
AcDbSymbolTableRecord
100
AcDbLinetypeTableRecord
  2
DASHDOT
 70
     0
  3
 __ . __ . __ . __ . __ . __ . __ . 
 72
    65
 73
     4
 40
18.5
 49
12.0
 74
     0
 49
-3.0
 74
     0
 49
0.5
 74
     0
 49
-3.0
 74
     0
  0
ENDTAB
  0
TABLE
  2
LAYER
  5
2
100
AcDbSymbolTable
 70
     1
  0
LAYER
  5
14
100
AcDbSymbolTableRecord
100
AcDbLayerTableRecord
  2
0
 70
     0
 62
     7
  6
Continuous
290
     1
370
    13
390
1D
  0
ENDTAB
  0
TABLE
  2
STYLE
  5
3
100
AcDbSymbolTable
 70
     2
  0
STYLE
  5
17
100
AcDbSymbolTableRecord
100
AcDbTextStyleTableRecord
  2
STANDARD
 70
     0
 40
0.0
 41
1.0
 50
0.0
 71
     0
 42
0.0
  3
isocp.shx
  4

  0
STYLE
  5
25
100
AcDbSymbolTableRecord
100
AcDbTextStyleTableRecord
  2
GDT
 70
     0
 40
0.0
 41
1.0
 50
0.0
 71
     0
 42
0.0
  3
gdt.shx
  4

  0
ENDTAB
  0
TABLE
  2
VIEW
  5
5
100
AcDbSymbolTable
 70
     0
  0
ENDTAB
  0
TABLE
  2
UCS
  5
6
100
AcDbSymbolTable
 70
     0
  0
ENDTAB
  0
TABLE
  2
APPID
  5
8
100
AcDbSymbolTable
 70
     1
  0
APPID
  5
16
100
AcDbSymbolTableRecord
100
AcDbRegAppTableRecord
  2
ACAD
 70
     0
  0
ENDTAB
  0
TABLE
  2
DIMSTYLE
  5
9
100
AcDbSymbolTable
 70
     1
100
AcDbDimStyleTable
 71
     0
  0
DIMSTYLE
105
18
100
AcDbSymbolTableRecord
100
AcDbDimStyleTableRecord
  2
STANDARD
 70
     0
  3

  4

 40
1.0
 41
2.5
 42
0.625
 43
3.75
 44
1.25
 45
0.0
 46
0.0
 47
0.0
 48
0.0
 71
     0
 72
     0
 73
     0
 74
     0
 75
     0
 76
     0
 77
     1
 78
     8
 79
     0
140
2.5
141
2.5
142
0.0
143
0.03937
144
1.0
145
0.0
146
1.0
147
0.625
148
0.0
170
     0
171
     3
172
     1
173
     0
174
     0
175
     0
176
     0
177
     0
178
     0
179
     0
271
     2
272
     2
273
     2
274
     3
275
     0
276
     0
277
     2
278
    44
279
     0
280
     0
281
     0
282
     0
283
     0
284
     8
285
     0
286
     0
288
     0
289
     0
340
0
341
0
342
0
343
0
344
0
371
    -2
372
    -2
  0
ENDTAB
  0
TABLE
  2
BLOCK_RECORD
  5
1
100
AcDbSymbolTable
 70
    37
  0
BLOCK_RECORD
  5
A
100
AcDbSymbolTableRecord
100
AcDbBlockTableRecord
  2
*MODEL_SPACE
340
20
  0
BLOCK_RECORD
  5
B
100
AcDbSymbolTableRecord
100
AcDbBlockTableRecord
  2
*PAPER_SPACE
340
21
  0
BLOCK_RECORD
  5
65
100
AcDbSymbolTableRecord
100
AcDbBlockTableRecord
  2
BLOCK61
340
0
102
{BLKREFS
331
26D
102
}
  0
BLOCK_RECORD
  5
66
100
AcDbSymbolTableRecord
100
AcDbBlockTableRecord
  2
BLOCK62
340
0
102
{BLKREFS
331
26E
102
}
  0
BLOCK_RECORD
  5
67
100
AcDbSymbolTableRecord
100
AcDbBlockTableRecord
  2
BLOCK63
340
0
102
{BLKREFS
331
26F
102
}
  0
BLOCK_RECORD
  5
68
100
AcDbSymbolTableRecord
100
AcDbBlockTableRecord
  2
BLOCK64
340
0
102
{BLKREFS
331
270
102
}
  0
BLOCK_RECORD
  5
69
100
AcDbSymbolTableRecord
100
AcDbBlockTableRecord
  2
BLOCK65
340
0
102
{BLKREFS
331
271
102
}
  0
BLOCK_RECORD
  5
6A
100
AcDbSymbolTableRecord
100
AcDbBlockTableRecord
  2
BLOCK66
340
0
102
{BLKREFS
331
272
102
}
  0
BLOCK_RECORD
  5
6B
100
AcDbSymbolTableRecord
100
AcDbBlockTableRecord
  2
BLOCK67
340
0
102
{BLKREFS
331
273
102
}
  0
BLOCK_RECORD
  5
6C
100
AcDbSymbolTableRecord
100
AcDbBlockTableRecord
  2
BLOCK68
340
0
102
{BLKREFS
331
274
102
}
  0
BLOCK_RECORD
  5
6D
100
AcDbSymbolTableRecord
100
AcDbBlockTableRecord
  2
BLOCK69
340
0
102
{BLKREFS
331
275
102
}
  0
BLOCK_RECORD
  5
6E
100
AcDbSymbolTableRecord
100
AcDbBlockTableRecord
  2
BLOCK70
340
0
102
{BLKREFS
331
276
102
}
  0
BLOCK_RECORD
  5
6F
100
AcDbSymbolTableRecord
100
AcDbBlockTableRecord
  2
BLOCK71
340
0
102
{BLKREFS
331
277
102
}
  0
BLOCK_RECORD
  5
70
100
AcDbSymbolTableRecord
100
AcDbBlockTableRecord
  2
BLOCK72
340
0
102
{BLKREFS
331
278
102
}
  0
BLOCK_RECORD
  5
71
100
AcDbSymbolTableRecord
100
AcDbBlockTableRecord
  2
BLOCK73
340
0
102
{BLKREFS
331
279
102
}
  0
BLOCK_RECORD
  5
72
100
AcDbSymbolTableRecord
100
AcDbBlockTableRecord
  2
BLOCK74
340
0
102
{BLKREFS
331
27A
102
}
  0
BLOCK_RECORD
  5
73
100
AcDbSymbolTableRecord
100
AcDbBlockTableRecord
  2
BLOCK75
340
0
102
{BLKREFS
331
27B
102
}
  0
BLOCK_RECORD
  5
74
100
AcDbSymbolTableRecord
100
AcDbBlockTableRecord
  2
BLOCK76
340
0
102
{BLKREFS
331
27C
102
}
  0
BLOCK_RECORD
  5
75
100
AcDbSymbolTableRecord
100
AcDbBlockTableRecord
  2
BLOCK77
340
0
102
{BLKREFS
331
27D
102
}
  0
BLOCK_RECORD
  5
76
100
AcDbSymbolTableRecord
100
AcDbBlockTableRecord
  2
BLOCK78
340
0
102
{BLKREFS
331
27E
102
}
  0
BLOCK_RECORD
  5
77
100
AcDbSymbolTableRecord
100
AcDbBlockTableRecord
  2
BLOCK79
340
0
102
{BLKREFS
331
27F
102
}
  0
BLOCK_RECORD
  5
78
100
AcDbSymbolTableRecord
100
AcDbBlockTableRecord
  2
BLOCK80
340
0
102
{BLKREFS
331
280
102
}
  0
BLOCK_RECORD
  5
79
100
AcDbSymbolTableRecord
100
AcDbBlockTableRecord
  2
BLOCK81
340
0
102
{BLKREFS
331
281
102
}
  0
BLOCK_RECORD
  5
7A
100
AcDbSymbolTableRecord
100
AcDbBlockTableRecord
  2
BLOCK82
340
0
102
{BLKREFS
331
282
102
}
  0
BLOCK_RECORD
  5
7B
100
AcDbSymbolTableRecord
100
AcDbBlockTableRecord
  2
BLOCK83
340
0
102
{BLKREFS
331
283
102
}
  0
BLOCK_RECORD
  5
7C
100
AcDbSymbolTableRecord
100
AcDbBlockTableRecord
  2
BLOCK84
340
0
102
{BLKREFS
331
284
102
}
  0
BLOCK_RECORD
  5
7D
100
AcDbSymbolTableRecord
100
AcDbBlockTableRecord
  2
BLOCK85
340
0
102
{BLKREFS
331
285
102
}
  0
BLOCK_RECORD
  5
7E
100
AcDbSymbolTableRecord
100
AcDbBlockTableRecord
  2
BLOCK86
340
0
102
{BLKREFS
331
286
102
}
  0
BLOCK_RECORD
  5
7F
100
AcDbSymbolTableRecord
100
AcDbBlockTableRecord
  2
BLOCK87
340
0
102
{BLKREFS
331
287
102
}
  0
BLOCK_RECORD
  5
80
100
AcDbSymbolTableRecord
100
AcDbBlockTableRecord
  2
BLOCK88
340
0
102
{BLKREFS
331
288
102
}
  0
BLOCK_RECORD
  5
81
100
AcDbSymbolTableRecord
100
AcDbBlockTableRecord
  2
BLOCK89
340
0
102
{BLKREFS
331
289
102
}
  0
BLOCK_RECORD
  5
56
100
AcDbSymbolTableRecord
100
AcDbBlockTableRecord
  2
*D29
340
0
  0
BLOCK_RECORD
  5
58
100
AcDbSymbolTableRecord
100
AcDbBlockTableRecord
  2
*D30
340
0
  0
BLOCK_RECORD
  5
5A
100
AcDbSymbolTableRecord
100
AcDbBlockTableRecord
  2
*D31
340
0
  0
BLOCK_RECORD
  5
82
100
AcDbSymbolTableRecord
100
AcDbBlockTableRecord
  2
BLOCK90
340
0
102
{BLKREFS
331
28A
102
}
  0
BLOCK_RECORD
  5
5D
100
AcDbSymbolTableRecord
100
AcDbBlockTableRecord
  2
*D33
340
0
  0
BLOCK_RECORD
  5
5F
100
AcDbSymbolTableRecord
100
AcDbBlockTableRecord
  2
*D34
340
0
  0
BLOCK_RECORD
  5
61
100
AcDbSymbolTableRecord
100
AcDbBlockTableRecord
  2
*D35
340
0
  0
BLOCK_RECORD
  5
83
100
AcDbSymbolTableRecord
100
AcDbBlockTableRecord
  2
BLOCK91
340
0
102
{BLKREFS
331
28B
102
}
  0
ENDTAB
  0
ENDSEC
  0
SECTION
  2
BLOCKS
  0
BLOCK
  5
D
100
AcDbEntity
  8
0
390
0
100
AcDbBlockBegin
  2
*MODEL_SPACE
 70
     0
 10
0.0
 20
0.0
 30
0.0
  3
*MODEL_SPACE
  1

  0
ENDBLK
  5
E
100
AcDbEntity
  8
0
390
0
100
AcDbBlockEnd
  0
BLOCK
  5
F
100
AcDbEntity
 67
     1
  8
0
390
0
100
AcDbBlockBegin
  2
*PAPER_SPACE
 70
     0
 10
0.0
 20
0.0
 30
0.0
  3
*PAPER_SPACE
  1

  0
ENDBLK
  5
10
100
AcDbEntity
 67
     1
  8
0
390
0
100
AcDbBlockEnd
  0
BLOCK
  5
84
100
AcDbEntity
  8
0
370
     0
390
0
100
AcDbBlockBegin
  2
BLOCK61
 70
     0
 10
0.0
 20
0.0
 30
0.0
  3
BLOCK61
  1

  0
TEXT
  5
85
100
AcDbEntity
  8
0
370
    13
390
0
 62
     7
100
AcDbText
 10
41.948341
 20
287.874939
 30
0.0
 40
2.0
  1
1
 41
0.75
 72
     5
 11
43.058216
 21
287.874939
 31
0.0
100
AcDbText
  0
ENDBLK
  5
86
100
AcDbEntity
  8
0
390
0
100
AcDbBlockEnd
  0
BLOCK
  5
87
100
AcDbEntity
  8
0
370
     0
390
0
100
AcDbBlockBegin
  2
BLOCK62
 70
     0
 10
0.0
 20
0.0
 30
0.0
  3
BLOCK62
  1

  0
TEXT
  5
88
100
AcDbEntity
  8
0
370
    13
390
0
 62
     7
100
AcDbText
 10
86.948349
 20
287.874939
 30
0.0
 40
2.0
  1
2
 41
0.75
 72
     5
 11
88.058228
 21
287.874939
 31
0.0
100
AcDbText
  0
ENDBLK
  5
89
100
AcDbEntity
  8
0
390
0
100
AcDbBlockEnd
  0
BLOCK
  5
8A
100
AcDbEntity
  8
0
370
     0
390
0
100
AcDbBlockBegin
  2
BLOCK63
 70
     0
 10
0.0
 20
0.0
 30
0.0
  3
BLOCK63
  1

  0
TEXT
  5
8B
100
AcDbEntity
  8
0
370
    13
390
0
 62
     7
100
AcDbText
 10
131.948349
 20
287.874939
 30
0.0
 40
2.0
  1
3
 41
0.75
 72
     5
 11
133.058228
 21
287.874939
 31
0.0
100
AcDbText
  0
ENDBLK
  5
8C
100
AcDbEntity
  8
0
390
0
100
AcDbBlockEnd
  0
BLOCK
  5
8D
100
AcDbEntity
  8
0
370
     0
390
0
100
AcDbBlockBegin
  2
BLOCK64
 70
     0
 10
0.0
 20
0.0
 30
0.0
  3
BLOCK64
  1

  0
TEXT
  5
8E
100
AcDbEntity
  8
0
370
    13
390
0
 62
     7
100
AcDbText
 10
176.948349
 20
287.874939
 30
0.0
 40
2.0
  1
4
 41
0.75
 72
     5
 11
178.058228
 21
287.874939
 31
0.0
100
AcDbText
  0
ENDBLK
  5
8F
100
AcDbEntity
  8
0
390
0
100
AcDbBlockEnd
  0
BLOCK
  5
90
100
AcDbEntity
  8
0
370
     0
390
0
100
AcDbBlockBegin
  2
BLOCK65
 70
     0
 10
0.0
 20
0.0
 30
0.0
  3
BLOCK65
  1

  0
TEXT
  5
91
100
AcDbEntity
  8
0
370
    13
390
0
 62
     7
100
AcDbText
 10
203.092789
 20
263.433167
 30
0.0
 40
2.0
  1
A
 50
90.000003
 41
0.75
 72
     5
 11
203.092789
 21
264.718292
 31
0.0
100
AcDbText
  0
ENDBLK
  5
92
100
AcDbEntity
  8
0
390
0
100
AcDbBlockEnd
  0
BLOCK
  5
93
100
AcDbEntity
  8
0
370
     0
390
0
100
AcDbBlockBegin
  2
BLOCK66
 70
     0
 10
0.0
 20
0.0
 30
0.0
  3
BLOCK66
  1

  0
TEXT
  5
94
100
AcDbEntity
  8
0
370
    13
390
0
 62
     7
100
AcDbText
 10
203.092789
 20
217.241501
 30
0.0
 40
2.0
  1
B
 50
90.000003
 41
0.75
 72
     5
 11
203.092789
 21
218.576691
 31
0.0
100
AcDbText
  0
ENDBLK
  5
95
100
AcDbEntity
  8
0
390
0
100
AcDbBlockEnd
  0
BLOCK
  5
96
100
AcDbEntity
  8
0
370
     0
390
0
100
AcDbBlockBegin
  2
BLOCK67
 70
     0
 10
0.0
 20
0.0
 30
0.0
  3
BLOCK67
  1

  0
TEXT
  5
97
100
AcDbEntity
  8
0
370
    13
390
0
 62
     7
100
AcDbText
 10
203.092789
 20
171.016418
 30
0.0
 40
2.0
  1
C
 50
90.000003
 41
0.75
 72
     5
 11
203.092789
 21
172.46843
 31
0.0
100
AcDbText
  0
ENDBLK
  5
98
100
AcDbEntity
  8
0
390
0
100
AcDbBlockEnd
  0
BLOCK
  5
99
100
AcDbEntity
  8
0
370
     0
390
0
100
AcDbBlockBegin
  2
BLOCK68
 70
     0
 10
0.0
 20
0.0
 30
0.0
  3
BLOCK68
  1

  0
TEXT
  5
9A
100
AcDbEntity
  8
0
370
    13
390
0
 62
     7
100
AcDbText
 10
203.092789
 20
124.848709
 30
0.0
 40
2.0
  1
D
 50
90.000003
 41
0.75
 72
     5
 11
203.092789
 21
126.302811
 31
0.0
100
AcDbText
  0
ENDBLK
  5
9B
100
AcDbEntity
  8
0
390
0
100
AcDbBlockEnd
  0
BLOCK
  5
9C
100
AcDbEntity
  8
0
370
     0
390
0
100
AcDbBlockBegin
  2
BLOCK69
 70
     0
 10
0.0
 20
0.0
 30
0.0
  3
BLOCK69
  1

  0
TEXT
  5
9D
100
AcDbEntity
  8
0
370
    13
390
0
 62
     7
100
AcDbText
 10
203.092789
 20
78.778008
 30
0.0
 40
2.0
  1
E
 50
90.000003
 41
0.75
 72
     5
 11
203.092789
 21
80.040176
 31
0.0
100
AcDbText
  0
ENDBLK
  5
9E
100
AcDbEntity
  8
0
390
0
100
AcDbBlockEnd
  0
BLOCK
  5
9F
100
AcDbEntity
  8
0
370
     0
390
0
100
AcDbBlockBegin
  2
BLOCK70
 70
     0
 10
0.0
 20
0.0
 30
0.0
  3
BLOCK70
  1

  0
TEXT
  5
A0
100
AcDbEntity
  8
0
370
    13
390
0
 62
     7
100
AcDbText
 10
203.092789
 20
32.649933
 30
0.0
 40
2.0
  1
F
 50
90.000003
 41
0.75
 72
     5
 11
203.092789
 21
33.834911
 31
0.0
100
AcDbText
  0
ENDBLK
  5
A1
100
AcDbEntity
  8
0
390
0
100
AcDbBlockEnd
  0
BLOCK
  5
A2
100
AcDbEntity
  8
0
370
     0
390
0
100
AcDbBlockBegin
  2
BLOCK71
 70
     0
 10
0.0
 20
0.0
 30
0.0
  3
BLOCK71
  1

  0
TEXT
  5
A3
100
AcDbEntity
  8
0
370
    13
390
0
 62
     7
100
AcDbText
 10
18.923407
 20
32.618019
 30
0.0
 40
2.0
  1
F
 50
90.000003
 41
0.75
 72
     5
 11
18.923407
 21
33.802998
 31
0.0
100
AcDbText
  0
ENDBLK
  5
A4
100
AcDbEntity
  8
0
390
0
100
AcDbBlockEnd
  0
BLOCK
  5
A5
100
AcDbEntity
  8
0
370
     0
390
0
100
AcDbBlockBegin
  2
BLOCK72
 70
     0
 10
0.0
 20
0.0
 30
0.0
  3
BLOCK72
  1

  0
TEXT
  5
A6
100
AcDbEntity
  8
0
370
    13
390
0
 62
     7
100
AcDbText
 10
19.092787
 20
78.778
 30
0.0
 40
2.0
  1
E
 50
90.000003
 41
0.75
 72
     5
 11
19.092787
 21
80.040169
 31
0.0
100
AcDbText
  0
ENDBLK
  5
A7
100
AcDbEntity
  8
0
390
0
100
AcDbBlockEnd
  0
BLOCK
  5
A8
100
AcDbEntity
  8
0
370
     0
390
0
100
AcDbBlockBegin
  2
BLOCK73
 70
     0
 10
0.0
 20
0.0
 30
0.0
  3
BLOCK73
  1

  0
TEXT
  5
A9
100
AcDbEntity
  8
0
370
    13
390
0
 62
     7
100
AcDbText
 10
19.092787
 20
124.848709
 30
0.0
 40
2.0
  1
D
 50
90.000003
 41
0.75
 72
     5
 11
19.092787
 21
126.302811
 31
0.0
100
AcDbText
  0
ENDBLK
  5
AA
100
AcDbEntity
  8
0
390
0
100
AcDbBlockEnd
  0
BLOCK
  5
AB
100
AcDbEntity
  8
0
370
     0
390
0
100
AcDbBlockBegin
  2
BLOCK74
 70
     0
 10
0.0
 20
0.0
 30
0.0
  3
BLOCK74
  1

  0
TEXT
  5
AC
100
AcDbEntity
  8
0
370
    13
390
0
 62
     7
100
AcDbText
 10
19.092787
 20
171.016418
 30
0.0
 40
2.0
  1
C
 50
90.000003
 41
0.75
 72
     5
 11
19.092787
 21
172.46843
 31
0.0
100
AcDbText
  0
ENDBLK
  5
AD
100
AcDbEntity
  8
0
390
0
100
AcDbBlockEnd
  0
BLOCK
  5
AE
100
AcDbEntity
  8
0
370
     0
390
0
100
AcDbBlockBegin
  2
BLOCK75
 70
     0
 10
0.0
 20
0.0
 30
0.0
  3
BLOCK75
  1

  0
TEXT
  5
AF
100
AcDbEntity
  8
0
370
    13
390
0
 62
     7
100
AcDbText
 10
19.092787
 20
217.241486
 30
0.0
 40
2.0
  1
B
 50
90.000003
 41
0.75
 72
     5
 11
19.092787
 21
218.576675
 31
0.0
100
AcDbText
  0
ENDBLK
  5
B0
100
AcDbEntity
  8
0
390
0
100
AcDbBlockEnd
  0
BLOCK
  5
B1
100
AcDbEntity
  8
0
370
     0
390
0
100
AcDbBlockBegin
  2
BLOCK76
 70
     0
 10
0.0
 20
0.0
 30
0.0
  3
BLOCK76
  1

  0
TEXT
  5
B2
100
AcDbEntity
  8
0
370
    13
390
0
 62
     7
100
AcDbText
 10
19.092789
 20
263.433197
 30
0.0
 40
2.0
  1
A
 50
90.000003
 41
0.75
 72
     5
 11
19.092789
 21
264.718323
 31
0.0
100
AcDbText
  0
ENDBLK
  5
B3
100
AcDbEntity
  8
0
390
0
100
AcDbBlockEnd
  0
BLOCK
  5
B4
100
AcDbEntity
  8
0
370
     0
390
0
100
AcDbBlockBegin
  2
BLOCK77
 70
     0
 10
0.0
 20
0.0
 30
0.0
  3
BLOCK77
  1

  0
TEXT
  5
B5
100
AcDbEntity
  8
0
370
    13
390
0
 62
     7
100
AcDbText
 10
41.948341
 20
6.874945
 30
0.0
 40
2.0
  1
1
 41
0.75
 72
     5
 11
43.058216
 21
6.874945
 31
0.0
100
AcDbText
  0
ENDBLK
  5
B6
100
AcDbEntity
  8
0
390
0
100
AcDbBlockEnd
  0
BLOCK
  5
B7
100
AcDbEntity
  8
0
370
     0
390
0
100
AcDbBlockBegin
  2
BLOCK78
 70
     0
 10
0.0
 20
0.0
 30
0.0
  3
BLOCK78
  1

  0
TEXT
  5
B8
100
AcDbEntity
  8
0
370
    13
390
0
 62
     7
100
AcDbText
 10
86.948349
 20
6.874945
 30
0.0
 40
2.0
  1
2
 41
0.75
 72
     5
 11
88.058228
 21
6.874945
 31
0.0
100
AcDbText
  0
ENDBLK
  5
B9
100
AcDbEntity
  8
0
390
0
100
AcDbBlockEnd
  0
BLOCK
  5
BA
100
AcDbEntity
  8
0
370
     0
390
0
100
AcDbBlockBegin
  2
BLOCK79
 70
     0
 10
0.0
 20
0.0
 30
0.0
  3
BLOCK79
  1

  0
TEXT
  5
BB
100
AcDbEntity
  8
0
370
    13
390
0
 62
     7
100
AcDbText
 10
131.948349
 20
6.874945
 30
0.0
 40
2.0
  1
3
 41
0.75
 72
     5
 11
133.058228
 21
6.874945
 31
0.0
100
AcDbText
  0
ENDBLK
  5
BC
100
AcDbEntity
  8
0
390
0
100
AcDbBlockEnd
  0
BLOCK
  5
BD
100
AcDbEntity
  8
0
370
     0
390
0
100
AcDbBlockBegin
  2
BLOCK80
 70
     0
 10
0.0
 20
0.0
 30
0.0
  3
BLOCK80
  1

  0
TEXT
  5
BE
100
AcDbEntity
  8
0
370
    13
390
0
 62
     7
100
AcDbText
 10
176.948349
 20
6.874945
 30
0.0
 40
2.0
  1
4
 41
0.75
 72
     5
 11
178.058228
 21
6.874945
 31
0.0
100
AcDbText
  0
ENDBLK
  5
BF
100
AcDbEntity
  8
0
390
0
100
AcDbBlockEnd
  0
BLOCK
  5
C0
100
AcDbEntity
  8
0
370
     0
390
0
100
AcDbBlockBegin
  2
BLOCK81
 70
     0
 10
0.0
 20
0.0
 30
0.0
  3
BLOCK81
  1

  0
TEXT
  5
C1
100
AcDbEntity
  8
0
370
    13
390
0
 62
     7
100
AcDbText
 10
200.262695
 20
6.931882
 30
0.0
 40
2.2
  1
A4
 41
0.8
 72
     5
 11
203.374161
 21
6.931882
 31
0.0
100
AcDbText
  0
ENDBLK
  5
C2
100
AcDbEntity
  8
0
390
0
100
AcDbBlockEnd
  0
BLOCK
  5
C3
100
AcDbEntity
  8
0
370
     0
390
0
100
AcDbBlockBegin
  2
BLOCK82
 70
     0
 10
0.0
 20
0.0
 30
0.0
  3
BLOCK82
  1

  0
TEXT
  5
C4
100
AcDbEntity
  8
0
370
    13
390
0
 62
     7
100
AcDbText
 10
152.95282
 20
20.734997
 30
0.0
 40
7.0
  1
127171 ...
 41
0.7
 72
     5
 11
195.457138
 21
20.734997
 31
0.0
100
AcDbText
  0
ENDBLK
  5
C5
100
AcDbEntity
  8
0
390
0
100
AcDbBlockEnd
  0
BLOCK
  5
C6
100
AcDbEntity
  8
0
370
     0
390
0
100
AcDbBlockBegin
  2
BLOCK83
 70
     0
 10
0.0
 20
0.0
 30
0.0
  3
BLOCK83
  1

  0
TEXT
  5
C7
100
AcDbEntity
  8
0
370
    13
390
0
 62
     7
100
AcDbText
 10
76.11969
 20
24.764885
 30
0.0
 40
3.5
  1
Stabilizzatore automatico di portata
 41
0.6
 72
     5
 11
141.697784
 21
24.764885
 31
0.0
100
AcDbText
  0
TEXT
  5
C8
100
AcDbEntity
  8
0
370
    13
390
0
 62
     7
100
AcDbText
 10
94.335823
 20
18.718056
 30
0.0
 40
3.5
  1
compatto \U+00D81 1/4"
 41
0.6
 72
     5
 11
123.481644
 21
18.718056
 31
0.0
100
AcDbText
  0
ENDBLK
  5
C9
100
AcDbEntity
  8
0
390
0
100
AcDbBlockEnd
  0
BLOCK
  5
CA
100
AcDbEntity
  8
0
370
     0
390
0
100
AcDbBlockBegin
  2
BLOCK84
 70
     0
 10
0.0
 20
0.0
 30
0.0
  3
BLOCK84
  1

  0
TEXT
  5
CB
100
AcDbEntity
  8
0
370
    13
390
0
 62
     7
100
AcDbText
 10
71.442711
 20
29.673382
 30
0.0
 40
1.2
  1
DESCRIPTION
 41
0.75
 72
     5
 11
82.356201
 21
29.673382
 31
0.0
100
AcDbText
  0
ENDBLK
  5
CC
100
AcDbEntity
  8
0
390
0
100
AcDbBlockEnd
  0
BLOCK
  5
CD
100
AcDbEntity
  8
0
370
     0
390
0
100
AcDbBlockBegin
  2
BLOCK85
 70
     0
 10
0.0
 20
0.0
 30
0.0
  3
BLOCK85
  1

  0
TEXT
  5
CE
100
AcDbEntity
  8
0
370
    13
390
0
 62
     7
100
AcDbText
 10
148.790222
 20
29.167343
 30
0.0
 40
1.2
  1
CODE
 41
0.75
 72
     5
 11
153.138763
 21
29.167343
 31
0.0
100
AcDbText
  0
ENDBLK
  5
CF
100
AcDbEntity
  8
0
390
0
100
AcDbBlockEnd
  0
BLOCK
  5
D0
100
AcDbEntity
  8
0
370
     0
390
0
100
AcDbBlockBegin
  2
BLOCK86
 70
     0
 10
0.0
 20
0.0
 30
0.0
  3
BLOCK86
  1

  0
TEXT
  5
D1
100
AcDbEntity
  8
0
370
    13
390
0
 62
     7
100
AcDbText
 10
71.50589
 20
14.63884
 30
0.0
 40
1.2
  1
Attenzione: documento gestito da sistema informatico: se distribuito esternamente, l'aggiornamento e la validit\U+00E0 dello stesso devono essere verificati ad ogni utilizzo. Sono vietate le modifiche manuali.
 50
0.000005
 41
0.731
 72
     5
 11
212.514542
 21
14.638852
 31
0.0
100
AcDbText
  0
ENDBLK
  5
D2
100
AcDbEntity
  8
0
390
0
100
AcDbBlockEnd
  0
BLOCK
  5
D3
100
AcDbEntity
  8
0
370
     0
390
0
100
AcDbBlockBegin
  2
BLOCK87
 70
     0
 10
0.0
 20
0.0
 30
0.0
  3
BLOCK87
  1

  0
TEXT
  5
D4
100
AcDbEntity
  8
0
370
    13
390
0
 62
     7
100
AcDbText
 10
71.702682
 20
11.06699
 30
0.0
 40
1.2
  1
Attention: document managed by software system: in case of external distribution, its update and validity must be checked at any need. Hand modifications are forbidden.
 50
0.000001
 41
0.731
 72
     5
 11
187.082474
 21
11.066993
 31
0.0
100
AcDbText
  0
ENDBLK
  5
D5
100
AcDbEntity
  8
0
390
0
100
AcDbBlockEnd
  0
BLOCK
  5
D6
100
AcDbEntity
  8
0
370
     0
390
0
100
AcDbBlockBegin
  2
BLOCK88
 70
     0
 10
0.0
 20
0.0
 30
0.0
  3
BLOCK88
  1

  0
TEXT
  5
D7
100
AcDbEntity
  8
0
370
    13
390
0
 62
     7
100
AcDbText
 10
71.463943
 20
16.193491
 30
0.0
 40
1.2
  1
Questo documento non \U+00E8 da ritenersi impegnativo. Ci riserviamo il diritto di modificare i nostri prodotti, di apportare miglioramenti tecnici e di svilupparli ulteriormente.
 41
0.7
 72
     5
 11
184.450195
 21
16.193491
 31
0.0
100
AcDbText
  0
ENDBLK
  5
D8
100
AcDbEntity
  8
0
390
0
100
AcDbBlockEnd
  0
BLOCK
  5
D9
100
AcDbEntity
  8
0
370
     0
390
0
100
AcDbBlockBegin
  2
BLOCK89
 70
     0
 10
0.0
 20
0.0
 30
0.0
  3
BLOCK89
  1

  0
TEXT
  5
DA
100
AcDbEntity
  8
0
370
    13
390
0
 62
     7
100
AcDbText
 10
71.590965
 20
12.673855
 30
0.0
 40
1.2
  1
This document can not be considered binding. We reserve the right to change our products, to produce technical improvements and to further develop them.
 41
0.731
 72
     5
 11
177.492218
 21
12.673855
 31
0.0
100
AcDbText
  0
ENDBLK
  5
DB
100
AcDbEntity
  8
0
390
0
100
AcDbBlockEnd
  0
BLOCK
  5
DC
100
AcDbEntity
  8
0
370
     0
390
0
100
AcDbBlockBegin
  2
*D29
 70
    65
 10
0.0
 20
0.0
 30
0.0
  3
*D29
  1

  0
SOLID
  5
DD
100
AcDbEntity
  8
0
370
    13
390
0
 62
     7
100
AcDbTrace
 10
57.526622
 20
247.298775
 30
0.0
 11
55.036136
 21
247.080887
 31
0.0
 12
57.526622
 22
247.298775
 32
0.0
 13
57.526622
 23
246.862999
 33
0.0
  0
SOLID
  5
DE
100
AcDbEntity
  8
0
370
    13
390
0
 62
     7
100
AcDbTrace
 10
163.54565
 20
246.862999
 30
0.0
 11
166.036136
 21
247.080887
 31
0.0
 12
163.54565
 22
246.862999
 32
0.0
 13
163.54565
 23
247.298775
 33
0.0
  0
TEXT
  5
DF
100
AcDbEntity
  8
0
370
    13
390
0
 62
     7
100
AcDbText
 10
108.044061
 20
248.080887
 30
0.0
 40
3.0
  1
111
 41
0.6
 72
     5
 11
113.028211
 21
248.080887
 31
0.0
100
AcDbText
  0
LINE
  5
E0
100
AcDbEntity
  8
0
370
    13
390
0
 62
     7
100
AcDbLine
 10
55.036136
 20
226.56679
 30
0.0
 11
55.036136
 21
248.080887
 31
0.0
210
0.0
220
0.0
230
1.0
  0
LINE
  5
E1
100
AcDbEntity
  8
0
370
    13
390
0
 62
     7
100
AcDbLine
 10
166.036136
 20
226.56679
 30
0.0
 11
166.036136
 21
248.080887
 31
0.0
210
0.0
220
0.0
230
1.0
  0
LINE
  5
E2
100
AcDbEntity
  8
0
370
    13
390
0
 62
     7
100
AcDbLine
 10
57.526622
 20
247.080887
 30
0.0
 11
163.54565
 21
247.080887
 31
0.0
210
0.0
220
0.0
230
1.0
  0
POLYLINE
  5
E3
100
AcDbEntity
  8
0
370
    13
390
0
 62
     7
100
AcDb2dPolyline
 66
     1
 10
0.0
 20
0.0
 30
0.0
 70
     1
 71
     3
  0
VERTEX
  5
E4
100
AcDbEntity
  8
0
370
     0
390
0
100
AcDbVertex
100
AcDb2dVertex
 10
57.526622
 20
247.298775
 30
0.0
  0
VERTEX
  5
E5
100
AcDbEntity
  8
0
370
     0
390
0
100
AcDbVertex
100
AcDb2dVertex
 10
55.036136
 20
247.080887
 30
0.0
  0
VERTEX
  5
E6
100
AcDbEntity
  8
0
370
     0
390
0
100
AcDbVertex
100
AcDb2dVertex
 10
57.526622
 20
246.862999
 30
0.0
  0
SEQEND
  5
E7
100
AcDbEntity
  8
0
370
     0
390
0
  0
POLYLINE
  5
E8
100
AcDbEntity
  8
0
370
    13
390
0
 62
     7
100
AcDb2dPolyline
 66
     1
 10
0.0
 20
0.0
 30
0.0
 70
     1
 71
     3
  0
VERTEX
  5
E9
100
AcDbEntity
  8
0
370
     0
390
0
100
AcDbVertex
100
AcDb2dVertex
 10
163.54565
 20
246.862999
 30
0.0
  0
VERTEX
  5
EA
100
AcDbEntity
  8
0
370
     0
390
0
100
AcDbVertex
100
AcDb2dVertex
 10
166.036136
 20
247.080887
 30
0.0
  0
VERTEX
  5
EB
100
AcDbEntity
  8
0
370
     0
390
0
100
AcDbVertex
100
AcDb2dVertex
 10
163.54565
 20
247.298775
 30
0.0
  0
SEQEND
  5
EC
100
AcDbEntity
  8
0
370
     0
390
0
  0
ENDBLK
  5
ED
100
AcDbEntity
  8
0
390
0
100
AcDbBlockEnd
  0
BLOCK
  5
EE
100
AcDbEntity
  8
0
370
     0
390
0
100
AcDbBlockBegin
  2
*D30
 70
    65
 10
0.0
 20
0.0
 30
0.0
  3
*D30
  1

  0
SOLID
  5
EF
100
AcDbEntity
  8
0
370
    13
390
0
 62
     7
100
AcDbTrace
 10
47.322059
 20
224.191694
 30
0.0
 11
47.104171
 21
226.68218
 31
0.0
 12
47.322059
 22
224.191694
 32
0.0
 13
46.886283
 23
224.191694
 33
0.0
  0
SOLID
  5
F0
100
AcDbEntity
  8
0
370
    13
390
0
 62
     7
100
AcDbTrace
 10
46.886283
 20
187.372667
 30
0.0
 11
47.104171
 21
184.882181
 31
0.0
 12
46.886283
 22
187.372667
 32
0.0
 13
47.322059
 23
187.372667
 33
0.0
  0
TEXT
  5
F1
100
AcDbEntity
  8
0
370
    13
390
0
 62
     7
100
AcDbText
 10
46.104171
 20
191.310419
 30
0.0
 40
3.0
  1
G1 1/4" ISO 228/1
 50
90.000003
 41
0.6
 72
     5
 11
46.104171
 21
220.253942
 31
0.0
100
AcDbText
  0
LINE
  5
F2
100
AcDbEntity
  8
0
370
    13
390
0
 62
     7
 48
0.223299
100
AcDbLine
 10
55.036136
 20
184.882181
 30
0.0
 11
46.104171
 21
184.882181
 31
0.0
210
0.0
220
0.0
230
1.0
  0
LINE
  5
F3
100
AcDbEntity
  8
0
370
    13
390
0
 62
     7
 48
0.223299
100
AcDbLine
 10
55.036136
 20
226.68218
 30
0.0
 11
46.104171
 21
226.68218
 31
0.0
210
0.0
220
0.0
230
1.0
  0
LINE
  5
F4
100
AcDbEntity
  8
0
370
    13
390
0
 62
     7
100
AcDbLine
 10
47.104171
 20
187.372667
 30
0.0
 11
47.104171
 21
224.191694
 31
0.0
210
0.0
220
0.0
230
1.0
  0
POLYLINE
  5
F5
100
AcDbEntity
  8
0
370
    13
390
0
 62
     7
100
AcDb2dPolyline
 66
     1
 10
0.0
 20
0.0
 30
0.0
 70
     1
 71
     3
  0
VERTEX
  5
F6
100
AcDbEntity
  8
0
370
     0
390
0
100
AcDbVertex
100
AcDb2dVertex
 10
47.322059
 20
224.191694
 30
0.0
  0
VERTEX
  5
F7
100
AcDbEntity
  8
0
370
     0
390
0
100
AcDbVertex
100
AcDb2dVertex
 10
47.104171
 20
226.68218
 30
0.0
  0
VERTEX
  5
F8
100
AcDbEntity
  8
0
370
     0
390
0
100
AcDbVertex
100
AcDb2dVertex
 10
46.886283
 20
224.191694
 30
0.0
  0
SEQEND
  5
F9
100
AcDbEntity
  8
0
370
     0
390
0
  0
POLYLINE
  5
FA
100
AcDbEntity
  8
0
370
    13
390
0
 62
     7
100
AcDb2dPolyline
 66
     1
 10
0.0
 20
0.0
 30
0.0
 70
     1
 71
     3
  0
VERTEX
  5
FB
100
AcDbEntity
  8
0
370
     0
390
0
100
AcDbVertex
100
AcDb2dVertex
 10
46.886283
 20
187.372667
 30
0.0
  0
VERTEX
  5
FC
100
AcDbEntity
  8
0
370
     0
390
0
100
AcDbVertex
100
AcDb2dVertex
 10
47.104171
 20
184.882181
 30
0.0
  0
VERTEX
  5
FD
100
AcDbEntity
  8
0
370
     0
390
0
100
AcDbVertex
100
AcDb2dVertex
 10
47.322059
 20
187.372667
 30
0.0
  0
SEQEND
  5
FE
100
AcDbEntity
  8
0
370
     0
390
0
  0
ENDBLK
  5
FF
100
AcDbEntity
  8
0
390
0
100
AcDbBlockEnd
  0
BLOCK
  5
100
100
AcDbEntity
  8
0
370
     0
390
0
100
AcDbBlockBegin
  2
*D31
 70
    65
 10
0.0
 20
0.0
 30
0.0
  3
*D31
  1

  0
SOLID
  5
101
100
AcDbEntity
  8
0
370
    13
390
0
 62
     7
100
AcDbTrace
 10
179.821635
 20
224.191694
 30
0.0
 11
179.603748
 21
226.68218
 31
0.0
 12
179.821635
 22
224.191694
 32
0.0
 13
179.38586
 23
224.191694
 33
0.0
  0
SOLID
  5
102
100
AcDbEntity
  8
0
370
    13
390
0
 62
     7
100
AcDbTrace
 10
179.38586
 20
187.372667
 30
0.0
 11
179.603748
 21
184.882181
 31
0.0
 12
179.38586
 22
187.372667
 32
0.0
 13
179.821635
 23
187.372667
 33
0.0
  0
TEXT
  5
103
100
AcDbEntity
  8
0
370
    13
390
0
 62
     7
100
AcDbText
 10
178.603748
 20
191.310419
 30
0.0
 40
3.0
  1
G1 1/4" ISO 228/1
 50
90.000003
 41
0.6
 72
     5
 11
178.603748
 21
220.253942
 31
0.0
100
AcDbText
  0
LINE
  5
104
100
AcDbEntity
  8
0
370
    13
390
0
 62
     7
 48
0.36419
100
AcDbLine
 10
166.036136
 20
184.882181
 30
0.0
 11
180.603748
 21
184.882181
 31
0.0
210
0.0
220
0.0
230
1.0
  0
LINE
  5
105
100
AcDbEntity
  8
0
370
    13
390
0
 62
     7
 48
0.36419
100
AcDbLine
 10
166.036136
 20
226.68218
 30
0.0
 11
180.603748
 21
226.68218
 31
0.0
210
0.0
220
0.0
230
1.0
  0
LINE
  5
106
100
AcDbEntity
  8
0
370
    13
390
0
 62
     7
100
AcDbLine
 10
179.603748
 20
187.372667
 30
0.0
 11
179.603748
 21
224.191694
 31
0.0
210
0.0
220
0.0
230
1.0
  0
POLYLINE
  5
107
100
AcDbEntity
  8
0
370
    13
390
0
 62
     7
100
AcDb2dPolyline
 66
     1
 10
0.0
 20
0.0
 30
0.0
 70
     1
 71
     3
  0
VERTEX
  5
108
100
AcDbEntity
  8
0
370
     0
390
0
100
AcDbVertex
100
AcDb2dVertex
 10
179.821635
 20
224.191694
 30
0.0
  0
VERTEX
  5
109
100
AcDbEntity
  8
0
370
     0
390
0
100
AcDbVertex
100
AcDb2dVertex
 10
179.603748
 20
226.68218
 30
0.0
  0
VERTEX
  5
10A
100
AcDbEntity
  8
0
370
     0
390
0
100
AcDbVertex
100
AcDb2dVertex
 10
179.38586
 20
224.191694
 30
0.0
  0
SEQEND
  5
10B
100
AcDbEntity
  8
0
370
     0
390
0
  0
POLYLINE
  5
10C
100
AcDbEntity
  8
0
370
    13
390
0
 62
     7
100
AcDb2dPolyline
 66
     1
 10
0.0
 20
0.0
 30
0.0
 70
     1
 71
     3
  0
VERTEX
  5
10D
100
AcDbEntity
  8
0
370
     0
390
0
100
AcDbVertex
100
AcDb2dVertex
 10
179.38586
 20
187.372667
 30
0.0
  0
VERTEX
  5
10E
100
AcDbEntity
  8
0
370
     0
390
0
100
AcDbVertex
100
AcDb2dVertex
 10
179.603748
 20
184.882181
 30
0.0
  0
VERTEX
  5
10F
100
AcDbEntity
  8
0
370
     0
390
0
100
AcDbVertex
100
AcDb2dVertex
 10
179.821635
 20
187.372667
 30
0.0
  0
SEQEND
  5
110
100
AcDbEntity
  8
0
370
     0
390
0
  0
ENDBLK
  5
111
100
AcDbEntity
  8
0
390
0
100
AcDbBlockEnd
  0
BLOCK
  5
112
100
AcDbEntity
  8
0
370
     0
390
0
100
AcDbBlockBegin
  2
BLOCK90
 70
     0
 10
0.0
 20
0.0
 30
0.0
  3
BLOCK90
  1

  0
LINE
  5
113
100
AcDbEntity
  8
0
370
    35
390
0
 62
     7
 48
0.23196
100
AcDbLine
 10
66.0
 20
11.506213
 30
0.0
 11
66.0
 21
20.78461
 31
0.0
210
0.0
220
0.0
230
1.0
  0
LINE
  5
114
100
AcDbEntity
  8
0
370
    35
390
0
 62
     7
 48
0.287655
100
AcDbLine
 10
66.0
 20
0.0
 30
0.0
 11
66.0
 21
11.506213
 31
0.0
210
0.0
220
0.0
230
1.0
  0
LINE
  5
115
100
AcDbEntity
  8
0
370
    35
390
0
 62
     7
100
AcDbLine
 10
66.0
 20
-20.78461
 30
0.0
 11
66.0
 21
0.0
 31
0.0
210
0.0
220
0.0
230
1.0
  0
LINE
  5
116
100
AcDbEntity
  8
0
370
    35
390
0
 62
     7
 48
0.080385
100
AcDbLine
 10
66.0
 20
-24.0
 30
0.0
 11
66.0
 21
-20.78461
 31
0.0
210
0.0
220
0.0
230
1.0
  0
LINE
  5
117
100
AcDbEntity
  8
0
370
    35
390
0
 62
     7
 48
0.080385
100
AcDbLine
 10
66.0
 20
20.78461
 30
0.0
 11
66.0
 21
24.0
 31
0.0
210
0.0
220
0.0
230
1.0
  0
LINE
  5
118
100
AcDbEntity
  8
0
370
    35
390
0
 62
     7
 48
0.287655
100
AcDbLine
 10
-45.0
 20
-11.506213
 30
0.0
 11
-45.0
 21
0.0
 31
0.0
210
0.0
220
0.0
230
1.0
  0
LINE
  5
119
100
AcDbEntity
  8
0
370
    35
390
0
 62
     7
100
AcDbLine
 10
-45.0
 20
0.0
 30
0.0
 11
-45.0
 21
20.78461
 31
0.0
210
0.0
220
0.0
230
1.0
  0
LINE
  5
11A
100
AcDbEntity
  8
0
370
    35
390
0
 62
     7
 48
0.080385
100
AcDbLine
 10
-45.0
 20
20.78461
 30
0.0
 11
-45.0
 21
24.0
 31
0.0
210
0.0
220
0.0
230
1.0
  0
LINE
  5
11B
100
AcDbEntity
  8
0
370
    35
390
0
 62
     7
 48
0.080385
100
AcDbLine
 10
-45.0
 20
-24.0
 30
0.0
 11
-45.0
 21
-20.78461
 31
0.0
210
0.0
220
0.0
230
1.0
  0
LINE
  5
11C
100
AcDbEntity
  8
0
370
    35
390
0
 62
     7
 48
0.23196
100
AcDbLine
 10
-45.0
 20
-20.78461
 30
0.0
 11
-45.0
 21
-11.506213
 31
0.0
210
0.0
220
0.0
230
1.0
  0
LINE
  5
11D
100
AcDbEntity
  8
0
370
    13
390
0
 62
     7
 48
0.396938
100
AcDbLine
 10
-17.613249
 20
-30.5
 30
0.0
 11
-17.613249
 21
-14.622479
 31
0.0
210
0.0
220
0.0
230
1.0
  0
LINE
  5
11E
100
AcDbEntity
  8
0
370
    13
390
0
 62
     7
 48
0.390431
100
AcDbLine
 10
-18.479274
 20
-30.0
 30
0.0
 11
-18.479274
 21
-14.382766
 31
0.0
210
0.0
220
0.0
230
1.0
  0
LINE
  5
11F
100
AcDbEntity
  8
0
370
    13
390
0
 62
     7
100
AcDbLine
 10
-17.613249
 20
-14.622479
 30
0.0
 11
-17.613249
 21
30.5
 31
0.0
210
0.0
220
0.0
230
1.0
  0
LINE
  5
120
100
AcDbEntity
  8
0
370
    13
390
0
 62
     7
100
AcDbLine
 10
-18.479274
 20
-14.382766
 30
0.0
 11
-18.479274
 21
30.0
 31
0.0
210
0.0
220
0.0
230
1.0
  0
LINE
  5
121
100
AcDbEntity
  8
0
370
    13
390
0
 62
     7
 48
0.351388
100
AcDbLine
 10
-20.211325
 20
-27.0
 30
0.0
 11
-20.211325
 21
-12.94449
 31
0.0
210
0.0
220
0.0
230
1.0
  0
LINE
  5
122
100
AcDbEntity
  8
0
370
    13
390
0
 62
     7
100
AcDbLine
 10
-20.211325
 20
-12.94449
 30
0.0
 11
-20.211325
 21
27.0
 31
0.0
210
0.0
220
0.0
230
1.0
  0
LINE
  5
123
100
AcDbEntity
  8
0
370
    13
390
0
 62
     7
 48
0.344881
100
AcDbLine
 10
-21.07735
 20
-26.5
 30
0.0
 11
-21.07735
 21
-12.704777
 31
0.0
210
0.0
220
0.0
230
1.0
  0
LINE
  5
124
100
AcDbEntity
  8
0
370
    13
390
0
 62
     7
100
AcDbLine
 10
-21.07735
 20
-12.704777
 30
0.0
 11
-21.07735
 21
26.5
 31
0.0
210
0.0
220
0.0
230
1.0
  0
LINE
  5
125
100
AcDbEntity
  8
0
370
    35
390
0
 62
     7
 48
0.390431
100
AcDbLine
 10
0.0
 20
-30.0
 30
0.0
 11
0.0
 21
-14.382766
 31
0.0
210
0.0
220
0.0
230
1.0
  0
LINE
  5
126
100
AcDbEntity
  8
0
370
    35
390
0
 62
     7
100
AcDbLine
 10
0.0
 20
-14.382766
 30
0.0
 11
0.0
 21
30.0
 31
0.0
210
0.0
220
0.0
230
1.0
  0
LINE
  5
127
100
AcDbEntity
  8
0
370
    35
390
0
 62
     7
100
AcDbLine
 10
-0.5
 20
30.5
 30
0.0
 11
-0.5
 21
-14.622479
 31
0.0
210
0.0
220
0.0
230
1.0
  0
LINE
  5
128
100
AcDbEntity
  8
0
370
    35
390
0
 62
     7
 48
0.396938
100
AcDbLine
 10
-0.5
 20
-14.622479
 30
0.0
 11
-0.5
 21
-30.5
 31
0.0
210
0.0
220
0.0
230
1.0
  0
SPLINE
  5
129
100
AcDbEntity
  8
0
370
    35
390
0
 62
     7
100
AcDbSpline
210
0.0
220
0.0
230
1.0
 70
     8
 71
     5
 72
    15
 73
     9
 74
     0
 42
0.0
 43
0.0
 40
45.367669365447462
 40
45.367669365447462
 40
45.367669365447462
 40
45.367669365447462
 40
45.367669365447462
 40
45.367669365447462
 40
77.471671731444943
 40
77.471671731444943
 40
77.471671731444943
 40
90.741316751487062
 40
90.741316751487062
 40
90.741316751487062
 40
90.741316751487062
 40
90.741316751487062
 40
90.741316751487062
 10
-44.999999275115343
 20
20.784617116179746
 30
0.0
 10
-44.99999927511535
 20
20.035544034047721
 30
0.0
 10
-44.932508641604571
 20
19.286592842768226
 30
0.0
 10
-44.79757301682632
 20
18.526747770817771
 30
0.0
 10
-44.505024592932493
 20
17.421413573632069
 30
0.0
 10
-44.048794282599616
 20
16.245073588707001
 30
0.0
 10
-43.900662005311574
 20
15.894011298384699
 30
0.0
 10
-43.736954764141089
 20
15.534882282433925
 30
0.0
 10
-43.556624327025943
 20
15.166558427265459
 30
0.0
  0
LINE
  5
12A
100
AcDbEntity
  8
0
370
    35
390
0
 62
     7
 48
0.098261
100
AcDbLine
 10
-43.556624
 20
11.236103
 30
0.0
 11
-43.556624
 21
15.166558
 31
0.0
210
0.0
220
0.0
230
1.0
  0
SPLINE
  5
12B
100
AcDbEntity
  8
0
370
    35
390
0
 62
     7
100
AcDbSpline
210
0.0
220
0.0
230
1.0
 70
     8
 71
     5
 72
    15
 73
     9
 74
     0
 42
0.0
 43
0.0
 40
0.0
 40
0.0
 40
0.0
 40
0.0
 40
0.0
 40
0.0
 40
33.307600213139843
 40
33.307600213139843
 40
33.307600213139843
 40
45.367669366199621
 40
45.367669366199621
 40
45.367669366199621
 40
45.367669366199621
 40
45.367669366199621
 40
45.367669366199621
 10
-43.556624327025929
 20
11.23610252712211
 30
0.0
 10
-44.00926447652656
 20
9.3870728509876749
 30
0.0
 10
-44.35717185351146
 20
7.6539054924224965
 30
0.0
 10
-44.61695273206842
 20
6.0007691173635305
 30
0.0
 10
-44.863564619810461
 20
3.8202710633857779
 30
0.0
 10
-44.971424503129043
 20
1.6896498982301995
 30
0.0
 10
-44.990475157644504
 20
1.1256251938761535
 30
0.0
 10
-44.999999275115407
 20
0.5628028213119551
 30
0.0
 10
-44.999999275115414
 20
0.0000148506457334
 30
0.0
  0
LINE
  5
12C
100
AcDbEntity
  8
0
370
    35
390
0
 62
     7
 48
0.002433
100
AcDbLine
 10
-43.556624
 20
26.402661
 30
0.0
 11
-43.556624
 21
26.5
 31
0.0
210
0.0
220
0.0
230
1.0
  0
SPLINE
  5
12D
100
AcDbEntity
  8
0
370
    35
390
0
 62
     7
100
AcDbSpline
210
0.0
220
0.0
230
1.0
 70
     8
 71
     5
 72
    15
 73
     9
 74
     0
 42
0.0
 43
0.0
 40
0.0
 40
0.0
 40
0.0
 40
0.0
 40
0.0
 40
0.0
 40
33.307600294111687
 40
33.307600294111687
 40
33.307600294111687
 40
45.367669365447462
 40
45.367669365447462
 40
45.367669365447462
 40
45.367669365447462
 40
45.367669365447462
 40
45.367669365447462
 10
-43.556624327025929
 20
26.402660954387585
 30
0.0
 10
-44.009264477626942
 20
25.478146114072842
 30
0.0
 10
-44.357171855195311
 20
24.611562432824392
 30
0.0
 10
-44.61695273398125
 20
23.784994243435442
 30
0.0
 10
-44.86356462092273
 20
22.69474521673515
 30
0.0
 10
-44.971424503513177
 20
21.629434634259454
 30
0.0
 10
-44.99047515777248
 20
21.347422283997329
 30
0.0
 10
-44.999999275115343
 20
21.066011099615242
 30
0.0
 10
-44.999999275115343
 20
20.784617116179746
 30
0.0
  0
SPLINE
  5
12E
100
AcDbEntity
  8
0
370
    35
390
0
 62
     7
100
AcDbSpline
210
0.0
220
0.0
230
1.0
 70
     8
 71
     5
 72
    15
 73
     9
 74
     0
 42
0.0
 43
0.0
 40
45.367669366199621
 40
45.367669366199621
 40
45.367669366199621
 40
45.367669366199621
 40
45.367669366199621
 40
45.367669366199621
 40
77.471671720148436
 40
77.471671720148436
 40
77.471671720148436
 40
90.741316753099554
 40
90.741316753099554
 40
90.741316753099554
 40
90.741316753099554
 40
90.741316753099554
 40
90.741316753099554
 10
-44.999999275115414
 20
0.0000148506457334
 30
0.0
 10
-44.999999275115421
 20
-1.4981313130069407
 30
0.0
 10
-44.932508641662679
 20
-2.9960336949240873
 30
0.0
 10
-44.797573017001227
 20
-4.5157238381512474
 30
0.0
 10
-44.505024593216518
 20
-6.7263922324835939
 30
0.0
 10
-44.048794283022261
 20
-9.0790722022429176
 30
0.0
 10
-43.900662005630075
 20
-9.7811967834763873
 30
0.0
 10
-43.736954764316508
 20
-10.499454816068555
 30
0.0
 10
-43.556624327025929
 20
-11.236102527122114
 30
0.0
  0
LINE
  5
12F
100
AcDbEntity
  8
0
370
    35
390
0
 62
     7
 48
0.036717
100
AcDbLine
 10
-43.556624
 20
-12.704777
 30
0.0
 11
-43.556624
 21
-11.236103
 31
0.0
210
0.0
220
0.0
230
1.0
  0
SPLINE
  5
130
100
AcDbEntity
  8
0
370
    35
390
0
 62
     7
100
AcDbSpline
210
0.0
220
0.0
230
1.0
 70
     8
 71
     5
 72
    15
 73
     9
 74
     0
 42
0.0
 43
0.0
 40
45.367669368033155
 40
45.367669368033155
 40
45.367669368033155
 40
45.367669368033155
 40
45.367669368033155
 40
45.367669368033155
 40
77.471671698655271
 40
77.471671698655271
 40
77.471671698655271
 40
90.74131675472141
 40
90.74131675472141
 40
90.74131675472141
 40
90.74131675472141
 40
90.74131675472141
 40
90.74131675472141
 10
-44.999999275113531
 20
-20.784602265522778
 30
0.0
 10
-44.999999275113524
 20
-21.533675346804294
 30
0.0
 10
-44.93250864176337
 20
-22.282626537214135
 30
0.0
 10
-44.797573017305353
 20
-23.0424716082522
 30
0.0
 10
-44.505024593721465
 20
-24.147805805365422
 30
0.0
 10
-44.048794283800966
 20
-25.324145790105753
 30
0.0
 10
-43.900662006199184
 20
-25.675208081316001
 30
0.0
 10
-43.736954764630632
 20
-26.034337098219204
 30
0.0
 10
-43.556624327025922
 20
-26.402660954387585
 30
0.0
  0
LINE
  5
131
100
AcDbEntity
  8
0
370
    35
390
0
 62
     7
 48
0.002433
100
AcDbLine
 10
-43.556624
 20
-26.5
 30
0.0
 11
-43.556624
 21
-26.402661
 31
0.0
210
0.0
220
0.0
230
1.0
  0
SPLINE
  5
132
100
AcDbEntity
  8
0
370
    35
390
0
 62
     7
100
AcDbSpline
210
0.0
220
0.0
230
1.0
 70
     8
 71
     5
 72
    15
 73
     9
 74
     0
 42
0.0
 43
0.0
 40
0.0
 40
0.0
 40
0.0
 40
0.0
 40
0.0
 40
0.0
 40
33.3076001920275
 40
33.3076001920275
 40
33.3076001920275
 40
45.367669368033155
 40
45.367669368033155
 40
45.367669368033155
 40
45.367669368033155
 40
45.367669368033155
 40
45.367669368033155
 10
-43.556624327025929
 20
-15.166558427265469
 30
0.0
 10
-44.00926447623965
 20
-16.091073264746672
 30
0.0
 10
-44.357171853055021
 20
-16.957656943516692
 30
0.0
 10
-44.616952731507226
 20
-17.784225130376445
 30
0.0
 10
-44.863564619497225
 20
-18.874474157468889
 30
0.0
 10
-44.971424503020415
 20
-19.93978474011967
 30
0.0
 10
-44.990475157607015
 20
-20.221797092836557
 30
0.0
 10
-44.999999275113531
 20
-20.503208279654483
 30
0.0
 10
-44.999999275113531
 20
-20.784602265522778
 30
0.0
  0
LINE
  5
133
100
AcDbEntity
  8
0
370
    35
390
0
 62
     7
 48
0.061545
100
AcDbLine
 10
-43.556624
 20
-15.166558
 30
0.0
 11
-43.556624
 21
-12.704777
 31
0.0
210
0.0
220
0.0
230
1.0
  0
LINE
  5
134
100
AcDbEntity
  8
0
370
    35
390
0
 62
     7
 48
0.263916
100
AcDbLine
 10
-43.556624
 20
-15.166558
 30
0.0
 11
-33.0
 21
-15.166558
 31
0.0
210
0.0
220
0.0
230
1.0
  0
LINE
  5
135
100
AcDbEntity
  8
0
370
    35
390
0
 62
     7
 48
0.280903
100
AcDbLine
 10
-33.0
 20
-15.166558
 30
0.0
 11
-33.0
 21
-26.402661
 31
0.0
210
0.0
220
0.0
230
1.0
  0
LINE
  5
136
100
AcDbEntity
  8
0
370
    35
390
0
 62
     7
 48
0.263916
100
AcDbLine
 10
-43.556624
 20
-26.402661
 30
0.0
 11
-33.0
 21
-26.402661
 31
0.0
210
0.0
220
0.0
230
1.0
  0
LINE
  5
137
100
AcDbEntity
  8
0
370
    35
390
0
 62
     7
 48
0.263916
100
AcDbLine
 10
-43.556624
 20
26.402661
 30
0.0
 11
-33.0
 21
26.402661
 31
0.0
210
0.0
220
0.0
230
1.0
  0
LINE
  5
138
100
AcDbEntity
  8
0
370
    35
390
0
 62
     7
 48
0.280903
100
AcDbLine
 10
-33.0
 20
26.402661
 30
0.0
 11
-33.0
 21
15.166558
 31
0.0
210
0.0
220
0.0
230
1.0
  0
LINE
  5
139
100
AcDbEntity
  8
0
370
    35
390
0
 62
     7
 48
0.263916
100
AcDbLine
 10
-43.556624
 20
15.166558
 30
0.0
 11
-33.0
 21
15.166558
 31
0.0
210
0.0
220
0.0
230
1.0
  0
LINE
  5
13A
100
AcDbEntity
  8
0
370
    35
390
0
 62
     7
 48
0.263916
100
AcDbLine
 10
-43.556624
 20
11.236103
 30
0.0
 11
-33.0
 21
11.236103
 31
0.0
210
0.0
220
0.0
230
1.0
  0
LINE
  5
13B
100
AcDbEntity
  8
0
370
    35
390
0
 62
     7
100
AcDbLine
 10
-33.0
 20
11.236103
 30
0.0
 11
-33.0
 21
-11.236103
 31
0.0
210
0.0
220
0.0
230
1.0
  0
LINE
  5
13C
100
AcDbEntity
  8
0
370
    35
390
0
 62
     7
 48
0.263916
100
AcDbLine
 10
-43.556624
 20
-11.236103
 30
0.0
 11
-33.0
 21
-11.236103
 31
0.0
210
0.0
220
0.0
230
1.0
  0
LINE
  5
13D
100
AcDbEntity
  8
0
370
    13
390
0
 62
     7
 48
0.312345
100
AcDbLine
 10
52.414214
 20
24.0
 30
0.0
 11
52.414214
 21
11.506213
 31
0.0
210
0.0
220
0.0
230
1.0
  0
LINE
  5
13E
100
AcDbEntity
  8
0
370
    13
390
0
 62
     7
 48
0.316156
100
AcDbLine
 10
51.707107
 20
24.292893
 30
0.0
 11
51.707107
 21
11.646633
 31
0.0
210
0.0
220
0.0
230
1.0
  0
LINE
  5
13F
100
AcDbEntity
  8
0
370
    13
390
0
 62
     7
100
AcDbLine
 10
52.414214
 20
11.506213
 30
0.0
 11
52.414214
 21
-24.0
 31
0.0
210
0.0
220
0.0
230
1.0
  0
LINE
  5
140
100
AcDbEntity
  8
0
370
    13
390
0
 62
     7
100
AcDbLine
 10
51.707107
 20
11.646633
 30
0.0
 11
51.707107
 21
-24.292893
 31
0.0
210
0.0
220
0.0
230
1.0
  0
LINE
  5
141
100
AcDbEntity
  8
0
370
    13
390
0
 62
     7
 48
0.331308
100
AcDbLine
 10
50.542893
 20
25.457107
 30
0.0
 11
50.542893
 21
12.204787
 31
0.0
210
0.0
220
0.0
230
1.0
  0
LINE
  5
142
100
AcDbEntity
  8
0
370
    13
390
0
 62
     7
100
AcDbLine
 10
50.542893
 20
12.204787
 30
0.0
 11
50.542893
 21
-25.457107
 31
0.0
210
0.0
220
0.0
230
1.0
  0
LINE
  5
143
100
AcDbEntity
  8
0
370
    13
390
0
 62
     7
 48
0.33512
100
AcDbLine
 10
49.835786
 20
25.75
 30
0.0
 11
49.835786
 21
12.345208
 31
0.0
210
0.0
220
0.0
230
1.0
  0
LINE
  5
144
100
AcDbEntity
  8
0
370
    13
390
0
 62
     7
100
AcDbLine
 10
49.835786
 20
12.345208
 30
0.0
 11
49.835786
 21
-25.75
 31
0.0
210
0.0
220
0.0
230
1.0
  0
LINE
  5
145
100
AcDbEntity
  8
0
370
    35
390
0
 62
     7
 48
0.33512
100
AcDbLine
 10
39.5
 20
25.75
 30
0.0
 11
39.5
 21
12.345208
 31
0.0
210
0.0
220
0.0
230
1.0
  0
LINE
  5
146
100
AcDbEntity
  8
0
370
    35
390
0
 62
     7
100
AcDbLine
 10
39.5
 20
12.345208
 30
0.0
 11
39.5
 21
-25.75
 31
0.0
210
0.0
220
0.0
230
1.0
  0
LINE
  5
147
100
AcDbEntity
  8
0
370
    35
390
0
 62
     7
 48
0.33512
100
AcDbLine
 10
18.5
 20
25.75
 30
0.0
 11
18.5
 21
12.345208
 31
0.0
210
0.0
220
0.0
230
1.0
  0
LINE
  5
148
100
AcDbEntity
  8
0
370
    13
390
0
 62
     7
 48
0.33512
100
AcDbLine
 10
5.473354
 20
25.75
 30
0.0
 11
5.473354
 21
12.345208
 31
0.0
210
0.0
220
0.0
230
1.0
  0
LINE
  5
149
100
AcDbEntity
  8
0
370
    35
390
0
 62
     7
100
AcDbLine
 10
18.5
 20
12.345208
 30
0.0
 11
18.5
 21
-25.75
 31
0.0
210
0.0
220
0.0
230
1.0
  0
LINE
  5
14A
100
AcDbEntity
  8
0
370
    13
390
0
 62
     7
100
AcDbLine
 10
5.473354
 20
12.345208
 30
0.0
 11
5.473354
 21
-25.75
 31
0.0
210
0.0
220
0.0
230
1.0
  0
LINE
  5
14B
100
AcDbEntity
  8
0
370
    13
390
0
 62
     7
 48
0.341627
100
AcDbLine
 10
4.607328
 20
26.25
 30
0.0
 11
4.607328
 21
12.58492
 31
0.0
210
0.0
220
0.0
230
1.0
  0
LINE
  5
14C
100
AcDbEntity
  8
0
370
    13
390
0
 62
     7
100
AcDbLine
 10
4.607328
 20
12.58492
 30
0.0
 11
4.607328
 21
-26.25
 31
0.0
210
0.0
220
0.0
230
1.0
  0
LINE
  5
14D
100
AcDbEntity
  8
0
370
    13
390
0
 62
     7
 48
0.382622
100
AcDbLine
 10
2.788675
 20
29.4
 30
0.0
 11
2.788675
 21
14.095111
 31
0.0
210
0.0
220
0.0
230
1.0
  0
LINE
  5
14E
100
AcDbEntity
  8
0
370
    13
390
0
 62
     7
100
AcDbLine
 10
2.788675
 20
14.095111
 30
0.0
 11
2.788675
 21
-29.4
 31
0.0
210
0.0
220
0.0
230
1.0
  0
LINE
  5
14F
100
AcDbEntity
  8
0
370
    13
390
0
 62
     7
 48
0.389129
100
AcDbLine
 10
1.92265
 20
29.9
 30
0.0
 11
1.92265
 21
14.334824
 31
0.0
210
0.0
220
0.0
230
1.0
  0
LINE
  5
150
100
AcDbEntity
  8
0
370
    13
390
0
 62
     7
100
AcDbLine
 10
1.92265
 20
14.334824
 30
0.0
 11
1.92265
 21
-29.9
 31
0.0
210
0.0
220
0.0
230
1.0
  0
SPLINE
  5
151
100
AcDbEntity
  8
0
370
    35
390
0
 62
     7
100
AcDbSpline
210
0.0
220
0.0
230
1.0
 70
     8
 71
     5
 72
    15
 73
     9
 74
     0
 42
0.0
 43
0.0
 40
0.0
 40
0.0
 40
0.0
 40
0.0
 40
0.0
 40
0.0
 40
37.142933426933219
 40
37.142933426933219
 40
37.142933426933219
 40
43.177583700017067
 40
43.177583700017067
 40
43.177583700017067
 40
43.177583700017067
 40
43.177583700017067
 40
43.177583700017067
 10
64.700961894323342
 20
-10.633085159068411
 30
0.0
 10
65.175473484741715
 20
-8.6041065520970506
 30
0.0
 10
65.523691465019766
 20
-6.7106033540438821
 30
0.0
 10
65.767334675676807
 20
-4.9043805074079145
 30
0.0
 10
65.941595484555904
 20
-2.8635494019538634
 30
0.0
 10
65.992843303074579
 20
-0.8451301640239515
 30
0.0
 10
65.997614346802123
 20
-0.5633231402988844
 30
0.0
 10
65.999999761766489
 20
-0.2816667476596602
 30
0.0
 10
65.999999761766489
 20
-0.000016267618776
 30
0.0
  0
LINE
  5
152
100
AcDbEntity
  8
0
370
    35
390
0
 62
     7
 48
0.120875
100
AcDbLine
 10
64.700962
 20
-10.633085
 30
0.0
 11
64.700962
 21
-15.468067
 31
0.0
210
0.0
220
0.0
230
1.0
  0
SPLINE
  5
153
100
AcDbEntity
  8
0
370
    35
390
0
 62
     7
100
AcDbSpline
210
0.0
220
0.0
230
1.0
 70
     8
 71
     5
 72
    15
 73
     9
 74
     0
 42
0.0
 43
0.0
 40
43.177583703960302
 40
43.177583703960302
 40
43.177583703960302
 40
43.177583703960302
 40
43.177583703960302
 40
43.177583703960302
 40
78.125649456805036
 40
78.125649456805036
 40
78.125649456805036
 40
86.358489768840329
 40
86.358489768840329
 40
86.358489768840329
 40
86.358489768840329
 40
86.358489768840329
 40
86.358489768840329
 10
65.999999761759028
 20
-20.784617824726801
 30
0.0
 10
65.999999761759028
 20
-19.969066048826328
 30
0.0
 10
65.919996809320523
 20
-19.153613422701415
 30
0.0
 10
65.760032430433881
 20
-18.324205714128503
 30
0.0
 10
65.455732207975714
 20
-17.264085636125611
 30
0.0
 10
64.998138804715254
 20
-16.132996968654204
 30
0.0
 10
64.905110862179569
 20
-15.91446822512868
 30
0.0
 10
64.806138782352633
 20
-15.69293164576146
 30
0.0
 10
64.700961894323342
 20
-15.468067111292322
 30
0.0
  0
SPLINE
  5
154
100
AcDbEntity
  8
0
370
    35
390
0
 62
     7
100
AcDbSpline
210
0.0
220
0.0
230
1.0
 70
     8
 71
     5
 72
    15
 73
     9
 74
     0
 42
0.0
 43
0.0
 40
0.0
 40
0.0
 40
0.0
 40
0.0
 40
0.0
 40
0.0
 40
37.142933429605478
 40
37.142933429605478
 40
37.142933429605478
 40
43.177583703960302
 40
43.177583703960302
 40
43.177583703960302
 40
43.177583703960302
 40
43.177583703960302
 40
43.177583703960302
 10
64.700961894323342
 20
-26.101152270360732
 30
0.0
 10
65.17547348477585
 20
-25.086662966802063
 30
0.0
 10
65.523691465079438
 20
-24.139911367712237
 30
0.0
 10
65.767334675529042
 20
-23.236799944870167
 30
0.0
 10
65.941595484543029
 20
-22.216384392036346
 30
0.0
 10
65.992843303067374
 20
-21.207174772979585
 30
0.0
 10
65.997614346795018
 20
-21.066271261092375
 30
0.0
 10
65.999999761759042
 20
-20.925443064755651
 30
0.0
 10
65.999999761759028
 20
-20.784617824726801
 30
0.0
  0
LINE
  5
155
100
AcDbEntity
  8
0
370
    35
390
0
 62
     7
 48
0.003721
100
AcDbLine
 10
64.700962
 20
-26.101152
 30
0.0
 11
64.700962
 21
-26.25
 31
0.0
210
0.0
220
0.0
230
1.0
  0
LINE
  5
156
100
AcDbEntity
  8
0
370
    35
390
0
 62
     7
 48
0.048796
100
AcDbLine
 10
64.700962
 20
12.58492
 30
0.0
 11
64.700962
 21
10.633085
 31
0.0
210
0.0
220
0.0
230
1.0
  0
SPLINE
  5
157
100
AcDbEntity
  8
0
370
    35
390
0
 62
     7
100
AcDbSpline
210
0.0
220
0.0
230
1.0
 70
     8
 71
     5
 72
    15
 73
     9
 74
     0
 42
0.0
 43
0.0
 40
43.177583700017067
 40
43.177583700017067
 40
43.177583700017067
 40
43.177583700017067
 40
43.177583700017067
 40
43.177583700017067
 40
78.125649435862755
 40
78.125649435862755
 40
78.125649435862755
 40
86.358489751788952
 40
86.358489751788952
 40
86.358489751788952
 40
86.358489751788952
 40
86.358489751788952
 40
86.358489751788952
 10
65.999999761766489
 20
-0.000016267618776
 30
0.0
 10
65.999999761766489
 20
1.6310872836349466
 30
0.0
 10
65.919996809360541
 20
3.2619925359215398
 30
0.0
 10
65.760032430386858
 20
4.9208079541071683
 30
0.0
 10
65.455732207906024
 20
7.0410481095159145
 30
0.0
 10
64.99813880485182
 20
9.3032254437237736
 30
0.0
 10
64.905110862274057
 20
9.7402829309768979
 30
0.0
 10
64.806138782402343
 20
10.183356089917591
 30
0.0
 10
64.700961894323342
 20
10.633085159068411
 30
0.0
  0
LINE
  5
158
100
AcDbEntity
  8
0
370
    35
390
0
 62
     7
 48
0.003721
100
AcDbLine
 10
64.700962
 20
26.25
 30
0.0
 11
64.700962
 21
26.101152
 31
0.0
210
0.0
220
0.0
230
1.0
  0
SPLINE
  5
159
100
AcDbEntity
  8
0
370
    35
390
0
 62
     7
100
AcDbSpline
210
0.0
220
0.0
230
1.0
 70
     8
 71
     5
 72
    15
 73
     9
 74
     0
 42
0.0
 43
0.0
 40
43.177583700852672
 40
43.177583700852672
 40
43.177583700852672
 40
43.177583700852672
 40
43.177583700852672
 40
43.177583700852672
 40
78.125649451325941
 40
78.125649451325941
 40
78.125649451325941
 40
86.358489762346309
 40
86.358489762346309
 40
86.358489762346309
 40
86.358489762346309
 40
86.358489762346309
 40
86.358489762346309
 10
65.999999761765025
 20
20.784601557016778
 30
0.0
 10
65.999999761765011
 20
21.60015333289104
 30
0.0
 10
65.919996809318945
 20
22.415605959063207
 30
0.0
 10
65.760032430343813
 20
23.245013667812401
 30
0.0
 10
65.455732207923319
 20
24.305133745679889
 30
0.0
 10
64.998138804679286
 20
25.436222413082398
 30
0.0
 10
64.905110862155183
 20
25.654751156578996
 30
0.0
 10
64.806138782339687
 20
25.876287735919316
 30
0.0
 10
64.700961894323356
 20
26.101152270360735
 30
0.0
  0
LINE
  5
15A
100
AcDbEntity
  8
0
370
    35
390
0
 62
     7
 48
0.072079
100
AcDbLine
 10
64.700962
 20
15.468067
 30
0.0
 11
64.700962
 21
12.58492
 31
0.0
210
0.0
220
0.0
230
1.0
  0
SPLINE
  5
15B
100
AcDbEntity
  8
0
370
    35
390
0
 62
     7
100
AcDbSpline
210
0.0
220
0.0
230
1.0
 70
     8
 71
     5
 72
    15
 73
     9
 74
     0
 42
0.0
 43
0.0
 40
0.0
 40
0.0
 40
0.0
 40
0.0
 40
0.0
 40
0.0
 40
37.142933437092324
 40
37.142933437092324
 40
37.142933437092324
 40
43.177583700852672
 40
43.177583700852672
 40
43.177583700852672
 40
43.177583700852672
 40
43.177583700852672
 40
43.177583700852672
 10
64.700961894323342
 20
15.468067111292317
 30
0.0
 10
65.175473484871503
 20
16.482556415055477
 30
0.0
 10
65.523691465219827
 20
17.429308014341629
 30
0.0
 10
65.767334675834633
 20
18.332419437780857
 30
0.0
 10
65.941595484664688
 20
19.352834990520321
 30
0.0
 10
65.992843303097217
 20
20.362044609497286
 30
0.0
 10
65.997614346808831
 20
20.502948121137813
 30
0.0
 10
65.999999761765025
 20
20.643776317230135
 30
0.0
 10
65.999999761765025
 20
20.784601557016778
 30
0.0
  0
LINE
  5
15C
100
AcDbEntity
  8
0
370
    35
390
0
 62
     7
 48
0.223774
100
AcDbLine
 10
64.700962
 20
26.101152
 30
0.0
 11
55.75
 21
26.101152
 31
0.0
210
0.0
220
0.0
230
1.0
  0
LINE
  5
15D
100
AcDbEntity
  8
0
370
    35
390
0
 62
     7
 48
0.003721
100
AcDbLine
 10
55.75
 20
26.25
 30
0.0
 11
55.75
 21
26.101152
 31
0.0
210
0.0
220
0.0
230
1.0
  0
LINE
  5
15E
100
AcDbEntity
  8
0
370
    35
390
0
 62
     7
 48
0.223774
100
AcDbLine
 10
64.700962
 20
15.468067
 30
0.0
 11
55.75
 21
15.468067
 31
0.0
210
0.0
220
0.0
230
1.0
  0
LINE
  5
15F
100
AcDbEntity
  8
0
370
    35
390
0
 62
     7
 48
0.072079
100
AcDbLine
 10
55.75
 20
15.468067
 30
0.0
 11
55.75
 21
12.58492
 31
0.0
210
0.0
220
0.0
230
1.0
  0
LINE
  5
160
100
AcDbEntity
  8
0
370
    35
390
0
 62
     7
 48
0.223774
100
AcDbLine
 10
64.700962
 20
-10.633085
 30
0.0
 11
55.75
 21
-10.633085
 31
0.0
210
0.0
220
0.0
230
1.0
  0
LINE
  5
161
100
AcDbEntity
  8
0
370
    35
390
0
 62
     7
 48
0.223774
100
AcDbLine
 10
64.700962
 20
-15.468067
 30
0.0
 11
55.75
 21
-15.468067
 31
0.0
210
0.0
220
0.0
230
1.0
  0
LINE
  5
162
100
AcDbEntity
  8
0
370
    35
390
0
 62
     7
 48
0.120875
100
AcDbLine
 10
55.75
 20
-10.633085
 30
0.0
 11
55.75
 21
-15.468067
 31
0.0
210
0.0
220
0.0
230
1.0
  0
LINE
  5
163
100
AcDbEntity
  8
0
370
    35
390
0
 62
     7
 48
0.223774
100
AcDbLine
 10
64.700962
 20
10.633085
 30
0.0
 11
55.75
 21
10.633085
 31
0.0
210
0.0
220
0.0
230
1.0
  0
LINE
  5
164
100
AcDbEntity
  8
0
370
    35
390
0
 62
     7
 48
0.048796
100
AcDbLine
 10
55.75
 20
12.58492
 30
0.0
 11
55.75
 21
10.633085
 31
0.0
210
0.0
220
0.0
230
1.0
  0
LINE
  5
165
100
AcDbEntity
  8
0
370
    35
390
0
 62
     7
 48
0.003721
100
AcDbLine
 10
55.75
 20
-26.101152
 30
0.0
 11
55.75
 21
-26.25
 31
0.0
210
0.0
220
0.0
230
1.0
  0
LINE
  5
166
100
AcDbEntity
  8
0
370
    35
390
0
 62
     7
 48
0.223774
100
AcDbLine
 10
64.700962
 20
-26.101152
 30
0.0
 11
55.75
 21
-26.101152
 31
0.0
210
0.0
220
0.0
230
1.0
  0
LINE
  5
167
100
AcDbEntity
  8
0
370
    13
390
0
 62
     7
 48
0.287655
100
AcDbLine
 10
53.085786
 20
11.506213
 30
0.0
 11
53.085786
 21
0.0
 31
0.0
210
0.0
220
0.0
230
1.0
  0
LINE
  5
168
100
AcDbEntity
  8
0
370
    13
390
0
 62
     7
100
AcDbLine
 10
53.085786
 20
0.0
 30
0.0
 11
53.085786
 21
-20.78461
 31
0.0
210
0.0
220
0.0
230
1.0
  0
LINE
  5
169
100
AcDbEntity
  8
0
370
    13
390
0
 62
     7
 48
0.080385
100
AcDbLine
 10
53.085786
 20
-20.78461
 30
0.0
 11
53.085786
 21
-24.0
 31
0.0
210
0.0
220
0.0
230
1.0
  0
LINE
  5
16A
100
AcDbEntity
  8
0
370
    13
390
0
 62
     7
 48
0.23196
100
AcDbLine
 10
53.085786
 20
20.78461
 30
0.0
 11
53.085786
 21
11.506213
 31
0.0
210
0.0
220
0.0
230
1.0
  0
LINE
  5
16B
100
AcDbEntity
  8
0
370
    13
390
0
 62
     7
 48
0.080385
100
AcDbLine
 10
53.085786
 20
24.0
 30
0.0
 11
53.085786
 21
20.78461
 31
0.0
210
0.0
220
0.0
230
1.0
  0
LINE
  5
16C
100
AcDbEntity
  8
0
370
    13
390
0
 62
     7
 48
0.37858
100
AcDbLine
 10
53.792893
 20
-3.760939
 30
0.0
 11
53.792893
 21
-18.90414
 31
0.0
210
0.0
220
0.0
230
1.0
  0
SPLINE
  5
16D
100
AcDbEntity
  8
0
370
    35
390
0
 62
     7
100
AcDbSpline
210
0.0
220
0.0
230
1.0
 70
     8
 71
     5
 72
    15
 73
     9
 74
     0
 42
0.0
 43
0.0
 40
0.0
 40
0.0
 40
0.0
 40
0.0
 40
0.0
 40
0.0
 40
1.2356875923754165
 40
1.2356875923754165
 40
1.2356875923754165
 40
5.6150961170255744
 40
5.6150961170255744
 40
5.6150961170255744
 40
5.6150961170255744
 40
5.6150961170255744
 40
5.6150961170255744
 10
53.085786437626908
 20
-20.784609690826528
 30
0.0
 10
53.120044522679102
 20
-20.700694862883793
 30
0.0
 10
53.154260591154184
 20
-20.616772627282906
 30
0.0
 10
53.174263210439307
 20
-20.567827532939781
 30
0.0
 10
53.329300392156483
 20
-20.186397399941701
 30
0.0
 10
53.480849070735296
 20
-19.804356918791957
 30
0.0
 10
53.59393718954442
 20
-19.506077343013118
 30
0.0
 10
53.699443865176235
 20
-19.205947249886329
 30
0.0
 10
53.792893218813447
 20
-18.904140271992993
 30
0.0
  0
SPLINE
  5
16E
100
AcDbEntity
  8
0
370
    35
390
0
 62
     7
100
AcDbSpline
210
0.0
220
0.0
230
1.0
 70
     8
 71
     5
 72
    15
 73
     9
 74
     0
 42
0.0
 43
0.0
 40
0.0
 40
0.0
 40
0.0
 40
0.0
 40
0.0
 40
0.0
 40
5.4903596560821368
 40
5.4903596560821368
 40
5.4903596560821368
 40
5.5150359536287636
 40
5.5150359536287636
 40
5.5150359536287636
 40
5.5150359536287636
 40
5.5150359536287636
 40
5.5150359536287636
 10
53.792893218813454
 20
-3.7609388376670685
 30
0.0
 10
53.675738000658122
 20
-3.0042024674367904
 30
0.0
 10
53.539632245135252
 20
-2.2527372291306089
 30
0.0
 10
53.393562175350191
 20
-1.5081719752061655
 30
0.0
 10
53.240736810432793
 20
-0.7591004220038276
 30
0.0
 10
53.087838807141154
 20
-0.0100545185091436
 30
0.0
 10
53.087154683539701
 20
-0.0067030124846162
 30
0.0
 10
53.086470560948484
 20
-0.0033515061089987
 30
0.0
 10
53.085786437626908
 20
0.0000000000089972
 30
0.0
  0
LINE
  5
16F
100
AcDbEntity
  8
0
370
    13
390
0
 62
     7
 48
0.197142
100
AcDbLine
 10
53.792893
 20
11.646633
 30
0.0
 11
53.792893
 21
3.760939
 31
0.0
210
0.0
220
0.0
230
1.0
  0
SPLINE
  5
170
100
AcDbEntity
  8
0
370
    35
390
0
 62
     7
100
AcDbSpline
210
0.0
220
0.0
230
1.0
 70
     8
 71
     5
 72
    15
 73
     9
 74
     0
 42
0.0
 43
0.0
 40
0.0
 40
0.0
 40
0.0
 40
0.0
 40
0.0
 40
0.0
 40
1.2356844268945444
 40
1.2356844268945444
 40
1.2356844268945444
 40
5.6150929514937742
 40
5.6150929514937742
 40
5.6150929514937742
 40
5.6150929514937742
 40
5.6150929514937742
 40
5.6150929514937742
 10
53.085786437626908
 20
-0.0000000000000071
 30
0.0
 10
53.120044434919613
 20
0.1678292259535247
 30
0.0
 10
53.154260415850473
 20
0.3356732671474559
 30
0.0
 10
53.174263385257831
 20
0.4335651759674364
 30
0.0
 10
53.329300477605322
 20
1.1964250125876297
 30
0.0
 10
53.480849070747759
 20
1.9605055441295596
 30
0.0
 10
53.593937189547681
 20
2.5570646956397121
 30
0.0
 10
53.699443865177329
 20
3.1573248818874129
 30
0.0
 10
53.792893218813454
 20
3.7609388376670667
 30
0.0
  0
SPLINE
  5
171
100
AcDbEntity
  8
0
370
    35
390
0
 62
     7
100
AcDbSpline
210
0.0
220
0.0
230
1.0
 70
     8
 71
     5
 72
    15
 73
     9
 74
     0
 42
0.0
 43
0.0
 40
0.0
 40
0.0
 40
0.0
 40
0.0
 40
0.0
 40
0.0
 40
5.4903596620304382
 40
5.4903596620304382
 40
5.4903596620304382
 40
5.5150359595782641
 40
5.5150359595782641
 40
5.5150359595782641
 40
5.5150359595782641
 40
5.5150359595782641
 40
5.5150359595782641
 10
53.792893218813447
 20
-22.665079109660066
 30
0.0
 10
53.67573800053119
 20
-22.286710924134997
 30
0.0
 10
53.539632244831971
 20
-21.910978304576854
 30
0.0
 10
53.393562174363595
 20
-21.538695679363855
 30
0.0
 10
53.240736810616369
 20
-21.164159902230484
 30
0.0
 10
53.087838807140649
 20
-20.789636950080979
 30
0.0
 10
53.087154683539787
 20
-20.787961197068569
 30
0.0
 10
53.08647056094852
 20
-20.786285443880679
 30
0.0
 10
53.085786437626915
 20
-20.7846096908216
 30
0.0
  0
LINE
  5
172
100
AcDbEntity
  8
0
370
    13
390
0
 62
     7
 48
0.040695
100
AcDbLine
 10
53.792893
 20
-22.665079
 30
0.0
 11
53.792893
 21
-24.292893
 31
0.0
210
0.0
220
0.0
230
1.0
  0
LINE
  5
173
100
AcDbEntity
  8
0
370
    13
390
0
 62
     7
 48
0.040695
100
AcDbLine
 10
53.792893
 20
24.292893
 30
0.0
 11
53.792893
 21
22.665079
 31
0.0
210
0.0
220
0.0
230
1.0
  0
SPLINE
  5
174
100
AcDbEntity
  8
0
370
    35
390
0
 62
     7
100
AcDbSpline
210
0.0
220
0.0
230
1.0
 70
     8
 71
     5
 72
    15
 73
     9
 74
     0
 42
0.0
 43
0.0
 40
0.0
 40
0.0
 40
0.0
 40
0.0
 40
0.0
 40
0.0
 40
1.2356816997548927
 40
1.2356816997548927
 40
1.2356816997548927
 40
5.6150902244051215
 40
5.6150902244051215
 40
5.6150902244051215
 40
5.6150902244051215
 40
5.6150902244051215
 40
5.6150902244051215
 10
53.085786437626915
 20
20.784609690826532
 30
0.0
 10
53.120044359312658
 20
20.868524118604824
 30
0.0
 10
53.154260264822028
 20
20.952445953970617
 30
0.0
 10
53.174263535837198
 20
21.001392649272773
 30
0.0
 10
53.329300551192709
 20
21.382822382629353
 30
0.0
 10
53.480849070736063
 20
21.764862462855699
 30
0.0
 10
53.593937189542828
 20
22.063142038639938
 30
0.0
 10
53.699443865176235
 20
22.363272131766731
 30
0.0
 10
53.792893218813447
 20
22.665079109660073
 30
0.0
  0
LINE
  5
175
100
AcDbEntity
  8
0
370
    13
390
0
 62
     7
 48
0.181438
100
AcDbLine
 10
53.792893
 20
18.90414
 30
0.0
 11
53.792893
 21
11.646633
 31
0.0
210
0.0
220
0.0
230
1.0
  0
SPLINE
  5
176
100
AcDbEntity
  8
0
370
    35
390
0
 62
     7
100
AcDbSpline
210
0.0
220
0.0
230
1.0
 70
     8
 71
     5
 72
    15
 73
     9
 74
     0
 42
0.0
 43
0.0
 40
0.0
 40
0.0
 40
0.0
 40
0.0
 40
0.0
 40
0.0
 40
5.4903596551630649
 40
5.4903596551630649
 40
5.4903596551630649
 40
5.5150359527013686
 40
5.5150359527013686
 40
5.5150359527013686
 40
5.5150359527013686
 40
5.5150359527013686
 40
5.5150359527013686
 10
53.792893218813454
 20
18.90414027199299
 30
0.0
 10
53.675738000677732
 20
19.282508457044788
 30
0.0
 10
53.539632245175383
 20
19.658241076135425
 30
0.0
 10
53.393562172370302
 20
20.030523703054264
 30
0.0
 10
53.24073681046174
 20
20.405059479891737
 30
0.0
 10
53.087838807140258
 20
20.779582431570628
 30
0.0
 10
53.087154683539289
 20
20.781258184582352
 30
0.0
 10
53.08647056094825
 20
20.782933937769592
 30
0.0
 10
53.085786437626908
 20
20.784609690828024
 30
0.0
  0
SPLINE
  5
177
100
AcDbEntity
  8
0
370
    35
390
0
 62
     7
100
AcDbSpline
210
0.0
220
0.0
230
1.0
 70
     8
 71
     5
 72
    12
 73
     6
 74
     0
 42
0.0
 43
0.0
 40
0.0
 40
0.0
 40
0.0
 40
0.0
 40
0.0
 40
0.0
 40
27.279097795161626
 40
27.279097795161626
 40
27.279097795161626
 40
27.279097795161626
 40
27.279097795161626
 40
27.279097795161626
 10
53.792893218813454
 20
-3.7609388376670769
 30
0.0
 10
53.994167344751268
 20
-5.0610213596552089
 30
0.0
 10
54.283896300341851
 20
-6.3841551042969993
 30
0.0
 10
54.666731171773897
 20
-7.744101984325571
 30
0.0
 10
55.151249554239357
 20
-9.1549441523811019
 30
0.0
 10
55.750000000000007
 20
-10.633085159068399
 30
0.0
  0
SPLINE
  5
178
100
AcDbEntity
  8
0
370
    35
390
0
 62
     7
100
AcDbSpline
210
0.0
220
0.0
230
1.0
 70
     8
 71
     5
 72
    12
 73
     6
 74
     0
 42
0.0
 43
0.0
 40
0.0
 40
0.0
 40
0.0
 40
0.0
 40
0.0
 40
0.0
 40
27.279097791374181
 40
27.279097791374181
 40
27.279097791374181
 40
27.279097791374181
 40
27.279097791374181
 40
27.279097791374181
 10
53.792893218813454
 20
-18.904140271992958
 30
0.0
 10
53.99416734472333
 20
-18.254099011089146
 30
0.0
 10
54.283896300253666
 20
-17.592532138861703
 30
0.0
 10
54.666731171830989
 20
-16.912558698478186
 30
0.0
 10
55.15124955432249
 20
-16.207137614533362
 30
0.0
 10
55.750000000000007
 20
-15.468067111292326
 30
0.0
  0
SPLINE
  5
179
100
AcDbEntity
  8
0
370
    35
390
0
 62
     7
100
AcDbSpline
210
0.0
220
0.0
230
1.0
 70
     8
 71
     5
 72
    12
 73
     6
 74
     0
 42
0.0
 43
0.0
 40
0.0
 40
0.0
 40
0.0
 40
0.0
 40
0.0
 40
0.0
 40
27.279097792091903
 40
27.279097792091903
 40
27.279097792091903
 40
27.279097792091903
 40
27.279097792091903
 40
27.279097792091903
 10
53.792893218813454
 20
3.760938837667088
 30
0.0
 10
53.994167344728616
 20
5.0610213595089206
 30
0.0
 10
54.283896300271486
 20
6.3841551040198787
 30
0.0
 10
54.666731171805488
 20
7.7441019846017829
 30
0.0
 10
55.15124955430673
 20
9.1549441525474329
 30
0.0
 10
55.750000000000007
 20
10.633085159068393
 30
0.0
  0
SPLINE
  5
17A
100
AcDbEntity
  8
0
370
    35
390
0
 62
     7
100
AcDbSpline
210
0.0
220
0.0
230
1.0
 70
     8
 71
     5
 72
    12
 73
     6
 74
     0
 42
0.0
 43
0.0
 40
0.0
 40
0.0
 40
0.0
 40
0.0
 40
0.0
 40
0.0
 40
27.279097791250049
 40
27.279097791250049
 40
27.279097791250049
 40
27.279097791250049
 40
27.279097791250049
 40
27.279097791250049
 10
53.792893218813454
 20
-22.665079109660091
 30
0.0
 10
53.994167344722413
 20
-23.315120370560948
 30
0.0
 10
54.283896300261354
 20
-23.976687242785328
 30
0.0
 10
54.666731171825077
 20
-24.656660683170962
 30
0.0
 10
55.151249554325219
 20
-25.362081767123055
 30
0.0
 10
55.750000000000014
 20
-26.101152270360728
 30
0.0
  0
SPLINE
  5
17B
100
AcDbEntity
  8
0
370
    35
390
0
 62
     7
100
AcDbSpline
210
0.0
220
0.0
230
1.0
 70
     8
 71
     5
 72
    12
 73
     6
 74
     0
 42
0.0
 43
0.0
 40
0.0
 40
0.0
 40
0.0
 40
0.0
 40
0.0
 40
0.0
 40
27.279097784135615
 40
27.279097784135615
 40
27.279097784135615
 40
27.279097784135615
 40
27.279097784135615
 40
27.279097784135615
 10
53.792893218813468
 20
22.665079109660073
 30
0.0
 10
53.994167344669933
 20
23.315120370391398
 30
0.0
 10
54.283896300017304
 20
23.976687242440235
 30
0.0
 10
54.666731171990023
 20
24.656660683528589
 30
0.0
 10
55.151249554481375
 20
25.362081767315811
 30
0.0
 10
55.750000000000014
 20
26.101152270360728
 30
0.0
  0
SPLINE
  5
17C
100
AcDbEntity
  8
0
370
    35
390
0
 62
     7
100
AcDbSpline
210
0.0
220
0.0
230
1.0
 70
     8
 71
     5
 72
    12
 73
     6
 74
     0
 42
0.0
 43
0.0
 40
0.0
 40
0.0
 40
0.0
 40
0.0
 40
0.0
 40
0.0
 40
27.279097790605416
 40
27.279097790605416
 40
27.279097790605416
 40
27.279097790605416
 40
27.279097790605416
 40
27.279097790605416
 10
53.792893218813468
 20
18.904140271993008
 30
0.0
 10
53.99416734471766
 20
18.254099011107513
 30
0.0
 10
54.283896300317366
 20
17.592532138868059
 30
0.0
 10
54.666731171765363
 20
16.912558698479735
 30
0.0
 10
55.151249554339373
 20
16.207137614512533
 30
0.0
 10
55.750000000000014
 20
15.468067111292328
 30
0.0
  0
ARC
  5
17D
100
AcDbEntity
  8
0
370
    35
390
0
 62
     7
100
AcDbCircle
 10
-17.613249
 20
-29.5
 30
0.0
 40
1.0
210
0.0
220
0.0
230
1.0
100
AcDbArc
 50
210.000004
 51
269.999996
  0
ARC
  5
17E
100
AcDbEntity
  8
0
370
    35
390
0
 62
     7
100
AcDbCircle
 10
-17.613249
 20
29.5
 30
0.0
 40
1.0
210
0.0
220
0.0
230
1.0
100
AcDbArc
 50
90.000004
 51
149.999996
  0
LINE
  5
17F
100
AcDbEntity
  8
0
370
    35
390
0
 62
     7
 48
0.086603
100
AcDbLine
 10
-20.211325
 20
-27.0
 30
0.0
 11
-18.479274
 21
-30.0
 31
0.0
210
0.0
220
0.0
230
1.0
  0
LINE
  5
180
100
AcDbEntity
  8
0
370
    35
390
0
 62
     7
 48
0.086603
100
AcDbLine
 10
-20.211325
 20
27.0
 30
0.0
 11
-18.479274
 21
30.0
 31
0.0
210
0.0
220
0.0
230
1.0
  0
ARC
  5
181
100
AcDbEntity
  8
0
370
    35
390
0
 62
     7
100
AcDbCircle
 10
-21.07735
 20
-27.5
 30
0.0
 40
1.0
210
0.0
220
0.0
230
1.0
100
AcDbArc
 50
29.999999
 51
90.000002
  0
ARC
  5
182
100
AcDbEntity
  8
0
370
    35
390
0
 62
     7
100
AcDbCircle
 10
-21.07735
 20
27.5
 30
0.0
 40
1.0
210
0.0
220
0.0
230
1.0
100
AcDbArc
 50
269.999998
 51
330.000001
  0
LINE
  5
183
100
AcDbEntity
  8
0
370
    35
390
0
 62
     7
 48
0.427831
100
AcDbLine
 10
-17.613249
 20
30.5
 30
0.0
 11
-0.5
 21
30.5
 31
0.0
210
0.0
220
0.0
230
1.0
  0
LINE
  5
184
100
AcDbEntity
  8
0
370
    35
390
0
 62
     7
 48
0.427831
100
AcDbLine
 10
-17.613249
 20
-30.5
 30
0.0
 11
-0.5
 21
-30.5
 31
0.0
210
0.0
220
0.0
230
1.0
  0
LINE
  5
185
100
AcDbEntity
  8
0
370
    35
390
0
 62
     7
 48
0.017678
100
AcDbLine
 10
0.0
 20
30.0
 30
0.0
 11
-0.5
 21
30.5
 31
0.0
210
0.0
220
0.0
230
1.0
  0
LINE
  5
186
100
AcDbEntity
  8
0
370
    35
390
0
 62
     7
 48
0.017678
100
AcDbLine
 10
0.0
 20
-30.0
 30
0.0
 11
-0.5
 21
-30.5
 31
0.0
210
0.0
220
0.0
230
1.0
  0
LINE
  5
187
100
AcDbEntity
  8
0
370
    35
390
0
 62
     7
 48
0.072169
100
AcDbLine
 10
-45.0
 20
24.0
 30
0.0
 11
-43.556624
 21
26.5
 31
0.0
210
0.0
220
0.0
230
1.0
  0
LINE
  5
188
100
AcDbEntity
  8
0
370
    35
390
0
 62
     7
 48
0.072169
100
AcDbLine
 10
-45.0
 20
-24.0
 30
0.0
 11
-43.556624
 21
-26.5
 31
0.0
210
0.0
220
0.0
230
1.0
  0
LINE
  5
189
100
AcDbEntity
  8
0
370
    35
390
0
 62
     7
100
AcDbLine
 10
-43.556624
 20
-26.5
 30
0.0
 11
-21.07735
 21
-26.5
 31
0.0
210
0.0
220
0.0
230
1.0
  0
LINE
  5
18A
100
AcDbEntity
  8
0
370
    35
390
0
 62
     7
100
AcDbLine
 10
-43.556624
 20
26.5
 30
0.0
 11
-21.07735
 21
26.5
 31
0.0
210
0.0
220
0.0
230
1.0
  0
ARC
  5
18B
100
AcDbEntity
  8
0
370
    35
390
0
 62
     7
100
AcDbCircle
 10
52.414213
 20
25.0
 30
0.0
 40
1.0
210
0.0
220
0.0
230
1.0
100
AcDbArc
 50
224.999995
 51
270.000005
  0
ARC
  5
18C
100
AcDbEntity
  8
0
370
    35
390
0
 62
     7
100
AcDbCircle
 10
52.414213
 20
-25.0
 30
0.0
 40
1.0
210
0.0
220
0.0
230
1.0
100
AcDbArc
 50
89.999995
 51
135.000005
  0
LINE
  5
18D
100
AcDbEntity
  8
0
370
    35
390
0
 62
     7
 48
0.041161
100
AcDbLine
 10
51.707107
 20
24.292893
 30
0.0
 11
50.542893
 21
25.457107
 31
0.0
210
0.0
220
0.0
230
1.0
  0
LINE
  5
18E
100
AcDbEntity
  8
0
370
    35
390
0
 62
     7
 48
0.041161
100
AcDbLine
 10
51.707107
 20
-24.292893
 30
0.0
 11
50.542893
 21
-25.457107
 31
0.0
210
0.0
220
0.0
230
1.0
  0
ARC
  5
18F
100
AcDbEntity
  8
0
370
    35
390
0
 62
     7
100
AcDbCircle
 10
49.835786
 20
24.75
 30
0.0
 40
1.0
210
0.0
220
0.0
230
1.0
100
AcDbArc
 50
45.000002
 51
89.999996
  0
ARC
  5
190
100
AcDbEntity
  8
0
370
    35
390
0
 62
     7
100
AcDbCircle
 10
49.835786
 20
-24.75
 30
0.0
 40
1.0
210
0.0
220
0.0
230
1.0
100
AcDbArc
 50
270.000004
 51
314.999998
  0
LINE
  5
191
100
AcDbEntity
  8
0
370
    35
390
0
 62
     7
 48
0.258395
100
AcDbLine
 10
49.835786
 20
25.75
 30
0.0
 11
39.5
 21
25.75
 31
0.0
210
0.0
220
0.0
230
1.0
  0
LINE
  5
192
100
AcDbEntity
  8
0
370
    35
390
0
 62
     7
 48
0.258395
100
AcDbLine
 10
49.835786
 20
-25.75
 30
0.0
 11
39.5
 21
-25.75
 31
0.0
210
0.0
220
0.0
230
1.0
  0
LINE
  5
193
100
AcDbEntity
  8
0
370
    35
390
0
 62
     7
100
AcDbLine
 10
39.5
 20
25.45
 30
0.0
 11
18.5
 21
25.45
 31
0.0
210
0.0
220
0.0
230
1.0
  0
LINE
  5
194
100
AcDbEntity
  8
0
370
    35
390
0
 62
     7
100
AcDbLine
 10
39.5
 20
-25.45
 30
0.0
 11
18.5
 21
-25.45
 31
0.0
210
0.0
220
0.0
230
1.0
  0
LINE
  5
195
100
AcDbEntity
  8
0
370
    35
390
0
 62
     7
 48
0.325666
100
AcDbLine
 10
18.5
 20
25.75
 30
0.0
 11
5.473354
 21
25.75
 31
0.0
210
0.0
220
0.0
230
1.0
  0
LINE
  5
196
100
AcDbEntity
  8
0
370
    35
390
0
 62
     7
 48
0.325666
100
AcDbLine
 10
18.5
 20
-25.75
 30
0.0
 11
5.473354
 21
-25.75
 31
0.0
210
0.0
220
0.0
230
1.0
  0
ARC
  5
197
100
AcDbEntity
  8
0
370
    35
390
0
 62
     7
100
AcDbCircle
 10
5.473354
 20
26.75
 30
0.0
 40
1.0
210
0.0
220
0.0
230
1.0
100
AcDbArc
 50
209.999996
 51
270.000003
  0
ARC
  5
198
100
AcDbEntity
  8
0
370
    35
390
0
 62
     7
100
AcDbCircle
 10
5.473354
 20
-26.75
 30
0.0
 40
1.0
210
0.0
220
0.0
230
1.0
100
AcDbArc
 50
89.999997
 51
150.000004
  0
LINE
  5
199
100
AcDbEntity
  8
0
370
    35
390
0
 62
     7
 48
0.090933
100
AcDbLine
 10
4.607328
 20
26.25
 30
0.0
 11
2.788675
 21
29.4
 31
0.0
210
0.0
220
0.0
230
1.0
  0
LINE
  5
19A
100
AcDbEntity
  8
0
370
    35
390
0
 62
     7
 48
0.090933
100
AcDbLine
 10
4.607328
 20
-26.25
 30
0.0
 11
2.788675
 21
-29.4
 31
0.0
210
0.0
220
0.0
230
1.0
  0
ARC
  5
19B
100
AcDbEntity
  8
0
370
    35
390
0
 62
     7
100
AcDbCircle
 10
1.92265
 20
28.9
 30
0.0
 40
1.0
210
0.0
220
0.0
230
1.0
100
AcDbArc
 50
30.000002
 51
89.999997
  0
ARC
  5
19C
100
AcDbEntity
  8
0
370
    35
390
0
 62
     7
100
AcDbCircle
 10
1.92265
 20
-28.9
 30
0.0
 40
1.0
210
0.0
220
0.0
230
1.0
100
AcDbArc
 50
270.000003
 51
329.999998
  0
LINE
  5
19D
100
AcDbEntity
  8
0
370
    35
390
0
 62
     7
 48
0.048066
100
AcDbLine
 10
1.92265
 20
29.9
 30
0.0
 11
0.0
 21
29.9
 31
0.0
210
0.0
220
0.0
230
1.0
  0
LINE
  5
19E
100
AcDbEntity
  8
0
370
    35
390
0
 62
     7
 48
0.048066
100
AcDbLine
 10
1.92265
 20
-29.9
 30
0.0
 11
0.0
 21
-29.9
 31
0.0
210
0.0
220
0.0
230
1.0
  0
LINE
  5
19F
100
AcDbEntity
  8
0
370
    35
390
0
 62
     7
 48
0.064952
100
AcDbLine
 10
66.0
 20
-24.0
 30
0.0
 11
64.700962
 21
-26.25
 31
0.0
210
0.0
220
0.0
230
1.0
  0
LINE
  5
1A0
100
AcDbEntity
  8
0
370
    35
390
0
 62
     7
 48
0.064952
100
AcDbLine
 10
66.0
 20
24.0
 30
0.0
 11
64.700962
 21
26.25
 31
0.0
210
0.0
220
0.0
230
1.0
  0
LINE
  5
1A1
100
AcDbEntity
  8
0
370
    35
390
0
 62
     7
 48
0.223774
100
AcDbLine
 10
64.700962
 20
26.25
 30
0.0
 11
55.75
 21
26.25
 31
0.0
210
0.0
220
0.0
230
1.0
  0
LINE
  5
1A2
100
AcDbEntity
  8
0
370
    35
390
0
 62
     7
 48
0.223774
100
AcDbLine
 10
64.700962
 20
-26.25
 30
0.0
 11
55.75
 21
-26.25
 31
0.0
210
0.0
220
0.0
230
1.0
  0
LINE
  5
1A3
100
AcDbEntity
  8
0
370
    35
390
0
 62
     7
 48
0.016789
100
AcDbLine
 10
53.085786
 20
-24.0
 30
0.0
 11
52.414214
 21
-24.0
 31
0.0
210
0.0
220
0.0
230
1.0
  0
LINE
  5
1A4
100
AcDbEntity
  8
0
370
    35
390
0
 62
     7
 48
0.016789
100
AcDbLine
 10
53.085786
 20
24.0
 30
0.0
 11
52.414214
 21
24.0
 31
0.0
210
0.0
220
0.0
230
1.0
  0
ARC
  5
1A5
100
AcDbEntity
  8
0
370
    35
390
0
 62
     7
100
AcDbCircle
 10
53.085786
 20
-25.0
 30
0.0
 40
1.0
210
0.0
220
0.0
230
1.0
100
AcDbArc
 50
45.0
 51
90.0
  0
ARC
  5
1A6
100
AcDbEntity
  8
0
370
    35
390
0
 62
     7
100
AcDbCircle
 10
53.085786
 20
25.0
 30
0.0
 40
1.0
210
0.0
220
0.0
230
1.0
100
AcDbArc
 50
270.0
 51
315.0
  0
LINE
  5
1A7
100
AcDbEntity
  8
0
370
    35
390
0
 62
     7
 48
0.069194
100
AcDbLine
 10
53.792893
 20
-24.292893
 30
0.0
 11
55.75
 21
-26.25
 31
0.0
210
0.0
220
0.0
230
1.0
  0
LINE
  5
1A8
100
AcDbEntity
  8
0
370
    35
390
0
 62
     7
 48
0.069194
100
AcDbLine
 10
53.792893
 20
24.292893
 30
0.0
 11
55.75
 21
26.25
 31
0.0
210
0.0
220
0.0
230
1.0
  0
ENDBLK
  5
1A9
100
AcDbEntity
  8
0
390
0
100
AcDbBlockEnd
  0
BLOCK
  5
1AA
100
AcDbEntity
  8
0
370
     0
390
0
100
AcDbBlockBegin
  2
*D33
 70
    65
 10
0.0
 20
0.0
 30
0.0
  3
*D33
  1

  0
SOLID
  5
1AB
100
AcDbEntity
  8
0
370
    13
390
0
 62
     7
100
AcDbTrace
 10
38.93587
 20
145.373909
 30
0.0
 11
38.717983
 21
147.864395
 31
0.0
 12
38.93587
 22
145.373909
 32
0.0
 13
38.500095
 23
145.373909
 33
0.0
  0
SOLID
  5
1AC
100
AcDbEntity
  8
0
370
    13
390
0
 62
     7
100
AcDbTrace
 10
38.500095
 20
89.354881
 30
0.0
 11
38.717983
 21
86.864395
 31
0.0
 12
38.500095
 22
89.354881
 32
0.0
 13
38.93587
 23
89.354881
 33
0.0
  0
TEXT
  5
1AD
100
AcDbEntity
  8
0
370
    13
390
0
 62
     7
100
AcDbText
 10
37.717983
 20
116.888012
 30
0.0
 40
3.0
  1
61
 50
90.000003
 41
0.6
 72
     5
 11
37.717983
 21
120.160779
 31
0.0
100
AcDbText
  0
TEXT
  5
1AE
100
AcDbEntity
  8
0
370
    13
390
0
 62
     7
100
AcDbText
 10
37.717983
 20
114.568012
 30
0.0
 40
3.0
  1
%%c
 50
90.000003
 41
0.6
 72
     5
 11
37.717983
 21
115.888012
 31
0.0
100
AcDbText
  0
LINE
  5
1AF
100
AcDbEntity
  8
0
370
    13
390
0
 62
     7
100
AcDbLine
 10
82.422887
 20
86.864395
 30
0.0
 11
37.717983
 21
86.864395
 31
0.0
210
0.0
220
0.0
230
1.0
  0
LINE
  5
1B0
100
AcDbEntity
  8
0
370
    13
390
0
 62
     7
100
AcDbLine
 10
82.422887
 20
147.864395
 30
0.0
 11
37.717983
 21
147.864395
 31
0.0
210
0.0
220
0.0
230
1.0
  0
LINE
  5
1B1
100
AcDbEntity
  8
0
370
    13
390
0
 62
     7
100
AcDbLine
 10
38.717983
 20
89.354881
 30
0.0
 11
38.717983
 21
145.373909
 31
0.0
210
0.0
220
0.0
230
1.0
  0
POLYLINE
  5
1B2
100
AcDbEntity
  8
0
370
    13
390
0
 62
     7
100
AcDb2dPolyline
 66
     1
 10
0.0
 20
0.0
 30
0.0
 70
     1
 71
     3
  0
VERTEX
  5
1B3
100
AcDbEntity
  8
0
370
     0
390
0
100
AcDbVertex
100
AcDb2dVertex
 10
38.93587
 20
145.373909
 30
0.0
  0
VERTEX
  5
1B4
100
AcDbEntity
  8
0
370
     0
390
0
100
AcDbVertex
100
AcDb2dVertex
 10
38.717983
 20
147.864395
 30
0.0
  0
VERTEX
  5
1B5
100
AcDbEntity
  8
0
370
     0
390
0
100
AcDbVertex
100
AcDb2dVertex
 10
38.500095
 20
145.373909
 30
0.0
  0
SEQEND
  5
1B6
100
AcDbEntity
  8
0
370
     0
390
0
  0
POLYLINE
  5
1B7
100
AcDbEntity
  8
0
370
    13
390
0
 62
     7
100
AcDb2dPolyline
 66
     1
 10
0.0
 20
0.0
 30
0.0
 70
     1
 71
     3
  0
VERTEX
  5
1B8
100
AcDbEntity
  8
0
370
     0
390
0
100
AcDbVertex
100
AcDb2dVertex
 10
38.500095
 20
89.354881
 30
0.0
  0
VERTEX
  5
1B9
100
AcDbEntity
  8
0
370
     0
390
0
100
AcDbVertex
100
AcDb2dVertex
 10
38.717983
 20
86.864395
 30
0.0
  0
VERTEX
  5
1BA
100
AcDbEntity
  8
0
370
     0
390
0
100
AcDbVertex
100
AcDb2dVertex
 10
38.93587
 20
89.354881
 30
0.0
  0
SEQEND
  5
1BB
100
AcDbEntity
  8
0
370
     0
390
0
  0
ENDBLK
  5
1BC
100
AcDbEntity
  8
0
390
0
100
AcDbBlockEnd
  0
BLOCK
  5
1BD
100
AcDbEntity
  8
0
370
     0
390
0
100
AcDbBlockBegin
  2
*D34
 70
    65
 10
0.0
 20
0.0
 30
0.0
  3
*D34
  1

  0
SOLID
  5
1BE
100
AcDbEntity
  8
0
370
    13
390
0
 62
     7
100
AcDbTrace
 10
47.322059
 20
138.873909
 30
0.0
 11
47.104171
 21
141.364395
 31
0.0
 12
47.322059
 22
138.873909
 32
0.0
 13
46.886283
 23
138.873909
 33
0.0
  0
SOLID
  5
1BF
100
AcDbEntity
  8
0
370
    13
390
0
 62
     7
100
AcDbTrace
 10
46.886283
 20
95.854881
 30
0.0
 11
47.104171
 21
93.364395
 31
0.0
 12
46.886283
 22
95.854881
 32
0.0
 13
47.322059
 23
95.854881
 33
0.0
  0
TEXT
  5
1C0
100
AcDbEntity
  8
0
370
    13
390
0
 62
     7
100
AcDbText
 10
46.104171
 20
115.728012
 30
0.0
 40
3.0
  1
48
 50
90.000003
 41
0.6
 72
     5
 11
46.104171
 21
119.000779
 31
0.0
100
AcDbText
  0
TEXT
  5
1C1
100
AcDbEntity
  8
0
370
    13
390
0
 62
     7
100
AcDbText
 10
46.104171
 20
104.609711
 30
0.0
 40
3.0
  1
Es.Ch.
 50
90.000003
 41
0.6
 72
     5
 11
46.104171
 21
114.728012
 31
0.0
100
AcDbText
  0
TEXT
  5
1C2
100
AcDbEntity
  8
0
370
    13
390
0
 62
     7
100
AcDbText
 10
46.104171
 20
120.000779
 30
0.0
 40
3.0
  1
( \U+00D853 )
 50
90.000003
 41
0.6
 72
     5
 11
46.104171
 21
131.830464
 31
0.0
100
AcDbText
  0
LINE
  5
1C3
100
AcDbEntity
  8
0
370
    13
390
0
 62
     7
 48
0.259383
100
AcDbLine
 10
56.479511
 20
93.364395
 30
0.0
 11
46.104171
 21
93.364395
 31
0.0
210
0.0
220
0.0
230
1.0
  0
LINE
  5
1C4
100
AcDbEntity
  8
0
370
    13
390
0
 62
     7
 48
0.259383
100
AcDbLine
 10
56.479511
 20
141.364395
 30
0.0
 11
46.104171
 21
141.364395
 31
0.0
210
0.0
220
0.0
230
1.0
  0
LINE
  5
1C5
100
AcDbEntity
  8
0
370
    13
390
0
 62
     7
100
AcDbLine
 10
47.104171
 20
95.854881
 30
0.0
 11
47.104171
 21
138.873909
 31
0.0
210
0.0
220
0.0
230
1.0
  0
POLYLINE
  5
1C6
100
AcDbEntity
  8
0
370
    13
390
0
 62
     7
100
AcDb2dPolyline
 66
     1
 10
0.0
 20
0.0
 30
0.0
 70
     1
 71
     3
  0
VERTEX
  5
1C7
100
AcDbEntity
  8
0
370
     0
390
0
100
AcDbVertex
100
AcDb2dVertex
 10
47.322059
 20
138.873909
 30
0.0
  0
VERTEX
  5
1C8
100
AcDbEntity
  8
0
370
     0
390
0
100
AcDbVertex
100
AcDb2dVertex
 10
47.104171
 20
141.364395
 30
0.0
  0
VERTEX
  5
1C9
100
AcDbEntity
  8
0
370
     0
390
0
100
AcDbVertex
100
AcDb2dVertex
 10
46.886283
 20
138.873909
 30
0.0
  0
SEQEND
  5
1CA
100
AcDbEntity
  8
0
370
     0
390
0
  0
POLYLINE
  5
1CB
100
AcDbEntity
  8
0
370
    13
390
0
 62
     7
100
AcDb2dPolyline
 66
     1
 10
0.0
 20
0.0
 30
0.0
 70
     1
 71
     3
  0
VERTEX
  5
1CC
100
AcDbEntity
  8
0
370
     0
390
0
100
AcDbVertex
100
AcDb2dVertex
 10
46.886283
 20
95.854881
 30
0.0
  0
VERTEX
  5
1CD
100
AcDbEntity
  8
0
370
     0
390
0
100
AcDbVertex
100
AcDb2dVertex
 10
47.104171
 20
93.364395
 30
0.0
  0
VERTEX
  5
1CE
100
AcDbEntity
  8
0
370
     0
390
0
100
AcDbVertex
100
AcDb2dVertex
 10
47.322059
 20
95.854881
 30
0.0
  0
SEQEND
  5
1CF
100
AcDbEntity
  8
0
370
     0
390
0
  0
ENDBLK
  5
1D0
100
AcDbEntity
  8
0
390
0
100
AcDbBlockEnd
  0
BLOCK
  5
1D1
100
AcDbEntity
  8
0
370
     0
390
0
100
AcDbBlockBegin
  2
*D35
 70
    65
 10
0.0
 20
0.0
 30
0.0
  3
*D35
  1

  0
SOLID
  5
1D2
100
AcDbEntity
  8
0
370
    13
390
0
 62
     7
100
AcDbTrace
 10
179.821635
 20
138.873909
 30
0.0
 11
179.603748
 21
141.364395
 31
0.0
 12
179.821635
 22
138.873909
 32
0.0
 13
179.38586
 23
138.873909
 33
0.0
  0
SOLID
  5
1D3
100
AcDbEntity
  8
0
370
    13
390
0
 62
     7
100
AcDbTrace
 10
179.38586
 20
95.854881
 30
0.0
 11
179.603748
 21
93.364395
 31
0.0
 12
179.38586
 22
95.854881
 32
0.0
 13
179.821635
 23
95.854881
 33
0.0
  0
TEXT
  5
1D4
100
AcDbEntity
  8
0
370
    13
390
0
 62
     7
100
AcDbText
 10
178.603748
 20
114.894439
 30
0.0
 40
3.0
  1
48
 50
90.000003
 41
0.6
 72
     5
 11
178.603748
 21
118.167206
 31
0.0
100
AcDbText
  0
TEXT
  5
1D5
100
AcDbEntity
  8
0
370
    13
390
0
 62
     7
100
AcDbText
 10
178.603748
 20
103.776138
 30
0.0
 40
3.0
  1
Es.Ch.
 50
90.000003
 41
0.6
 72
     5
 11
178.603748
 21
113.89444
 31
0.0
100
AcDbText
  0
TEXT
  5
1D6
100
AcDbEntity
  8
0
370
    13
390
0
 62
     7
100
AcDbText
 10
178.603748
 20
119.167206
 30
0.0
 40
3.0
  1
( \U+00D852,5 )
 50
90.000003
 41
0.6
 72
     5
 11
178.603748
 21
134.419659
 31
0.0
100
AcDbText
  0
LINE
  5
1D7
100
AcDbEntity
  8
0
370
    13
390
0
 62
     7
 48
0.396666
100
AcDbLine
 10
164.737094
 20
93.364395
 30
0.0
 11
180.603748
 21
93.364395
 31
0.0
210
0.0
220
0.0
230
1.0
  0
LINE
  5
1D8
100
AcDbEntity
  8
0
370
    13
390
0
 62
     7
 48
0.396666
100
AcDbLine
 10
164.737094
 20
141.364395
 30
0.0
 11
180.603748
 21
141.364395
 31
0.0
210
0.0
220
0.0
230
1.0
  0
LINE
  5
1D9
100
AcDbEntity
  8
0
370
    13
390
0
 62
     7
100
AcDbLine
 10
179.603748
 20
95.854881
 30
0.0
 11
179.603748
 21
138.873909
 31
0.0
210
0.0
220
0.0
230
1.0
  0
POLYLINE
  5
1DA
100
AcDbEntity
  8
0
370
    13
390
0
 62
     7
100
AcDb2dPolyline
 66
     1
 10
0.0
 20
0.0
 30
0.0
 70
     1
 71
     3
  0
VERTEX
  5
1DB
100
AcDbEntity
  8
0
370
     0
390
0
100
AcDbVertex
100
AcDb2dVertex
 10
179.821635
 20
138.873909
 30
0.0
  0
VERTEX
  5
1DC
100
AcDbEntity
  8
0
370
     0
390
0
100
AcDbVertex
100
AcDb2dVertex
 10
179.603748
 20
141.364395
 30
0.0
  0
VERTEX
  5
1DD
100
AcDbEntity
  8
0
370
     0
390
0
100
AcDbVertex
100
AcDb2dVertex
 10
179.38586
 20
138.873909
 30
0.0
  0
SEQEND
  5
1DE
100
AcDbEntity
  8
0
370
     0
390
0
  0
POLYLINE
  5
1DF
100
AcDbEntity
  8
0
370
    13
390
0
 62
     7
100
AcDb2dPolyline
 66
     1
 10
0.0
 20
0.0
 30
0.0
 70
     1
 71
     3
  0
VERTEX
  5
1E0
100
AcDbEntity
  8
0
370
     0
390
0
100
AcDbVertex
100
AcDb2dVertex
 10
179.38586
 20
95.854881
 30
0.0
  0
VERTEX
  5
1E1
100
AcDbEntity
  8
0
370
     0
390
0
100
AcDbVertex
100
AcDb2dVertex
 10
179.603748
 20
93.364395
 30
0.0
  0
VERTEX
  5
1E2
100
AcDbEntity
  8
0
370
     0
390
0
100
AcDbVertex
100
AcDb2dVertex
 10
179.821635
 20
95.854881
 30
0.0
  0
SEQEND
  5
1E3
100
AcDbEntity
  8
0
370
     0
390
0
  0
ENDBLK
  5
1E4
100
AcDbEntity
  8
0
390
0
100
AcDbBlockEnd
  0
BLOCK
  5
1E5
100
AcDbEntity
  8
0
370
     0
390
0
100
AcDbBlockBegin
  2
BLOCK91
 70
     0
 10
0.0
 20
0.0
 30
0.0
  3
BLOCK91
  1

  0
LINE
  5
1E6
100
AcDbEntity
  8
0
370
    35
390
0
 62
     7
 48
0.22655
100
AcDbLine
 10
66.0
 20
-21.061981
 30
0.0
 11
66.0
 21
-12.0
 31
0.0
210
0.0
220
0.0
230
1.0
  0
LINE
  5
1E7
100
AcDbEntity
  8
0
370
    35
390
0
 62
     7
 48
0.07345
100
AcDbLine
 10
66.0
 20
-24.0
 30
0.0
 11
66.0
 21
-21.061981
 31
0.0
210
0.0
220
0.0
230
1.0
  0
LINE
  5
1E8
100
AcDbEntity
  8
0
370
    35
390
0
 62
     7
 48
0.3
100
AcDbLine
 10
66.0
 20
12.0
 30
0.0
 11
66.0
 21
24.0
 31
0.0
210
0.0
220
0.0
230
1.0
  0
LINE
  5
1E9
100
AcDbEntity
  8
0
370
    35
390
0
 62
     7
100
AcDbLine
 10
66.0
 20
-12.0
 30
0.0
 11
66.0
 21
12.0
 31
0.0
210
0.0
220
0.0
230
1.0
  0
LINE
  5
1EA
100
AcDbEntity
  8
0
370
    35
390
0
 62
     7
 48
0.3
100
AcDbLine
 10
-45.0
 20
-24.0
 30
0.0
 11
-45.0
 21
-12.0
 31
0.0
210
0.0
220
0.0
230
1.0
  0
LINE
  5
1EB
100
AcDbEntity
  8
0
370
    35
390
0
 62
     7
100
AcDbLine
 10
-45.0
 20
-12.0
 30
0.0
 11
-45.0
 21
12.0
 31
0.0
210
0.0
220
0.0
230
1.0
  0
LINE
  5
1EC
100
AcDbEntity
  8
0
370
    35
390
0
 62
     7
 48
0.22655
100
AcDbLine
 10
-45.0
 20
12.0
 30
0.0
 11
-45.0
 21
21.061981
 31
0.0
210
0.0
220
0.0
230
1.0
  0
LINE
  5
1ED
100
AcDbEntity
  8
0
370
    35
390
0
 62
     7
 48
0.07345
100
AcDbLine
 10
-45.0
 20
21.061981
 30
0.0
 11
-45.0
 21
24.0
 31
0.0
210
0.0
220
0.0
230
1.0
  0
LINE
  5
1EE
100
AcDbEntity
  8
0
370
    13
390
0
 62
     7
 48
0.093343
100
AcDbLine
 10
-17.613249
 20
26.766268
 30
0.0
 11
-17.613249
 21
30.5
 31
0.0
210
0.0
220
0.0
230
1.0
  0
LINE
  5
1EF
100
AcDbEntity
  8
0
370
    13
390
0
 62
     7
 48
0.091813
100
AcDbLine
 10
-18.479274
 20
26.327477
 30
0.0
 11
-18.479274
 21
30.0
 31
0.0
210
0.0
220
0.0
230
1.0
  0
LINE
  5
1F0
100
AcDbEntity
  8
0
370
    13
390
0
 62
     7
100
AcDbLine
 10
-17.613249
 20
-30.5
 30
0.0
 11
-17.613249
 21
26.766268
 31
0.0
210
0.0
220
0.0
230
1.0
  0
LINE
  5
1F1
100
AcDbEntity
  8
0
370
    13
390
0
 62
     7
100
AcDbLine
 10
-18.479274
 20
-30.0
 30
0.0
 11
-18.479274
 21
26.327477
 31
0.0
210
0.0
220
0.0
230
1.0
  0
LINE
  5
1F2
100
AcDbEntity
  8
0
370
    13
390
0
 62
     7
 48
0.082632
100
AcDbLine
 10
-20.211325
 20
23.694729
 30
0.0
 11
-20.211325
 21
27.0
 31
0.0
210
0.0
220
0.0
230
1.0
  0
LINE
  5
1F3
100
AcDbEntity
  8
0
370
    13
390
0
 62
     7
100
AcDbLine
 10
-20.211325
 20
-27.0
 30
0.0
 11
-20.211325
 21
23.694729
 31
0.0
210
0.0
220
0.0
230
1.0
  0
LINE
  5
1F4
100
AcDbEntity
  8
0
370
    13
390
0
 62
     7
 48
0.081102
100
AcDbLine
 10
-21.07735
 20
23.255938
 30
0.0
 11
-21.07735
 21
26.5
 31
0.0
210
0.0
220
0.0
230
1.0
  0
LINE
  5
1F5
100
AcDbEntity
  8
0
370
    13
390
0
 62
     7
100
AcDbLine
 10
-21.07735
 20
-26.5
 30
0.0
 11
-21.07735
 21
23.255938
 31
0.0
210
0.0
220
0.0
230
1.0
  0
LINE
  5
1F6
100
AcDbEntity
  8
0
370
    35
390
0
 62
     7
 48
0.091813
100
AcDbLine
 10
0.0
 20
26.327477
 30
0.0
 11
0.0
 21
30.0
 31
0.0
210
0.0
220
0.0
230
1.0
  0
LINE
  5
1F7
100
AcDbEntity
  8
0
370
    35
390
0
 62
     7
100
AcDbLine
 10
0.0
 20
-30.0
 30
0.0
 11
0.0
 21
26.327477
 31
0.0
210
0.0
220
0.0
230
1.0
  0
LINE
  5
1F8
100
AcDbEntity
  8
0
370
    35
390
0
 62
     7
100
AcDbLine
 10
-0.5
 20
26.766268
 30
0.0
 11
-0.5
 21
-30.5
 31
0.0
210
0.0
220
0.0
230
1.0
  0
LINE
  5
1F9
100
AcDbEntity
  8
0
370
    35
390
0
 62
     7
 48
0.093343
100
AcDbLine
 10
-0.5
 20
30.5
 30
0.0
 11
-0.5
 21
26.766268
 31
0.0
210
0.0
220
0.0
230
1.0
  0
SPLINE
  5
1FA
100
AcDbEntity
  8
0
370
    35
390
0
 62
     7
100
AcDbSpline
210
0.0
220
0.0
230
1.0
 70
     8
 71
     5
 72
    15
 73
     9
 74
     0
 42
0.0
 43
0.0
 40
45.367669365447462
 40
45.367669365447462
 40
45.367669365447462
 40
45.367669365447462
 40
45.367669365447462
 40
45.367669365447462
 40
77.471671731444943
 40
77.471671731444943
 40
77.471671731444943
 40
90.741316751487062
 40
90.741316751487062
 40
90.741316751487062
 40
90.741316751487062
 40
90.741316751487062
 40
90.741316751487062
 10
-44.999999275115343
 20
-11.999987138910965
 30
0.0
 10
-44.99999927511535
 20
-13.297419775745848
 30
0.0
 10
-44.932508641604571
 20
-14.594641291431163
 30
0.0
 10
-44.79757301682632
 20
-15.910731561930175
 30
0.0
 10
-44.505024592932493
 20
-17.825226550799162
 30
0.0
 10
-44.048794282599616
 20
-19.862707171664187
 30
0.0
 10
-43.900662005311574
 20
-20.470764895123907
 30
0.0
 10
-43.736954764141089
 20
-21.092794597222856
 30
0.0
 10
-43.556624327025943
 20
-21.73075022801428
 30
0.0
  0
LINE
  5
1FB
100
AcDbEntity
  8
0
370
    35
390
0
 62
     7
 48
0.056731
100
AcDbLine
 10
-43.556624
 20
-24.0
 30
0.0
 11
-43.556624
 21
-21.73075
 31
0.0
210
0.0
220
0.0
230
1.0
  0
LINE
  5
1FC
100
AcDbEntity
  8
0
370
    35
390
0
 62
     7
 48
0.036084
100
AcDbLine
 10
-43.556624
 20
-24.0
 30
0.0
 11
-44.999999
 21
-24.0
 31
0.0
210
0.0
220
0.0
230
1.0
  0
SPLINE
  5
1FD
100
AcDbEntity
  8
0
370
    35
390
0
 62
     7
100
AcDbSpline
210
0.0
220
0.0
230
1.0
 70
     8
 71
     5
 72
    15
 73
     9
 74
     0
 42
0.0
 43
0.0
 40
45.367669366898198
 40
45.367669366898198
 40
45.367669366898198
 40
45.367669366898198
 40
45.367669366898198
 40
45.367669366898198
 40
77.471671685159691
 40
77.471671685159691
 40
77.471671685159691
 40
90.741316756747594
 40
90.741316756747594
 40
90.741316756747594
 40
90.741316756747594
 40
90.741316756747594
 40
90.741316756747594
 10
-44.999999275113794
 20
12.000012861051612
 30
0.0
 10
-44.999999275113794
 20
10.702580226169093
 30
0.0
 10
-44.932508641810223
 20
9.4053587124458744
 30
0.0
 10
-44.797573017444392
 20
8.0892684439820997
 30
0.0
 10
-44.505024593956414
 20
6.1747734551302136
 30
0.0
 10
-44.048794284123304
 20
4.1372928345585613
 30
0.0
 10
-43.900662006555294
 20
3.529235109695954
 30
0.0
 10
-43.73695476484157
 20
2.9072054052552962
 30
0.0
 10
-43.556624327025922
 20
2.2692497719857405
 30
0.0
  0
LINE
  5
1FE
100
AcDbEntity
  8
0
370
    35
390
0
 62
     7
 48
0.113462
100
AcDbLine
 10
-43.556624
 20
-2.26925
 30
0.0
 11
-43.556624
 21
2.26925
 31
0.0
210
0.0
220
0.0
230
1.0
  0
SPLINE
  5
1FF
100
AcDbEntity
  8
0
370
    35
390
0
 62
     7
100
AcDbSpline
210
0.0
220
0.0
230
1.0
 70
     8
 71
     5
 72
    15
 73
     9
 74
     0
 42
0.0
 43
0.0
 40
0.0
 40
0.0
 40
0.0
 40
0.0
 40
0.0
 40
0.0
 40
33.307600294111687
 40
33.307600294111687
 40
33.307600294111687
 40
45.367669365447462
 40
45.367669365447462
 40
45.367669365447462
 40
45.367669365447462
 40
45.367669365447462
 40
45.367669365447462
 10
-43.556624327025929
 20
-2.2692497719857272
 30
0.0
 10
-44.009264477626942
 20
-3.8705564477622887
 30
0.0
 10
-44.357171855195311
 20
-5.3715234126946774
 30
0.0
 10
-44.61695273398125
 20
-6.803181512636554
 30
0.0
 10
-44.86356462092273
 20
-8.6915482197839733
 30
0.0
 10
-44.971424503513177
 20
-10.536720274472669
 30
0.0
 10
-44.99047515777248
 20
-11.025179993488583
 30
0.0
 10
-44.999999275115343
 20
-11.512598462656493
 30
0.0
 10
-44.999999275115343
 20
-11.999987138910965
 30
0.0
  0
SPLINE
  5
200
100
AcDbEntity
  8
0
370
    35
390
0
 62
     7
100
AcDbSpline
210
0.0
220
0.0
230
1.0
 70
     8
 71
     5
 72
    15
 73
     9
 74
     0
 42
0.0
 43
0.0
 40
0.0
 40
0.0
 40
0.0
 40
0.0
 40
0.0
 40
0.0
 40
33.307600189399523
 40
33.307600189399523
 40
33.307600189399523
 40
45.367669366898198
 40
45.367669366898198
 40
45.367669366898198
 40
45.367669366898198
 40
45.367669366898198
 40
45.367669366898198
 10
-43.556624327025929
 20
21.730750228014276
 30
0.0
 10
-44.009264476203946
 20
20.129443557271891
 30
0.0
 10
-44.357171853000125
 20
18.628476596742782
 30
0.0
 10
-44.616952731480907
 20
17.19681850111531
 30
0.0
 10
-44.863564619470722
 20
15.308451793313425
 30
0.0
 10
-44.971424503011377
 20
13.463279738368815
 30
0.0
 10
-44.990475157604166
 20
12.974820015039372
 30
0.0
 10
-44.999999275113794
 20
12.487401541587779
 30
0.0
 10
-44.999999275113794
 20
12.000012861051612
 30
0.0
  0
LINE
  5
201
100
AcDbEntity
  8
0
370
    35
390
0
 62
     7
 48
0.03813
100
AcDbLine
 10
-43.556624
 20
21.73075
 30
0.0
 11
-43.556624
 21
23.255938
 31
0.0
210
0.0
220
0.0
230
1.0
  0
LINE
  5
202
100
AcDbEntity
  8
0
370
    35
390
0
 62
     7
 48
0.036084
100
AcDbLine
 10
-44.999999
 20
24.0
 30
0.0
 11
-43.556624
 21
24.0
 31
0.0
210
0.0
220
0.0
230
1.0
  0
LINE
  5
203
100
AcDbEntity
  8
0
370
    35
390
0
 62
     7
 48
0.018602
100
AcDbLine
 10
-43.556624
 20
23.255938
 30
0.0
 11
-43.556624
 21
24.0
 31
0.0
210
0.0
220
0.0
230
1.0
  0
LINE
  5
204
100
AcDbEntity
  8
0
370
    35
390
0
 62
     7
 48
0.0625
100
AcDbLine
 10
-33.0
 20
26.5
 30
0.0
 11
-33.0
 21
24.0
 31
0.0
210
0.0
220
0.0
230
1.0
  0
LINE
  5
205
100
AcDbEntity
  8
0
370
    35
390
0
 62
     7
 48
0.263916
100
AcDbLine
 10
-43.556624
 20
24.0
 30
0.0
 11
-33.0
 21
24.0
 31
0.0
210
0.0
220
0.0
230
1.0
  0
LINE
  5
206
100
AcDbEntity
  8
0
370
    35
390
0
 62
     7
 48
0.263916
100
AcDbLine
 10
-43.556624
 20
-2.26925
 30
0.0
 11
-33.0
 21
-2.26925
 31
0.0
210
0.0
220
0.0
230
1.0
  0
LINE
  5
207
100
AcDbEntity
  8
0
370
    35
390
0
 62
     7
 48
0.486538
100
AcDbLine
 10
-33.0
 20
-2.26925
 30
0.0
 11
-33.0
 21
-21.73075
 31
0.0
210
0.0
220
0.0
230
1.0
  0
LINE
  5
208
100
AcDbEntity
  8
0
370
    35
390
0
 62
     7
 48
0.263916
100
AcDbLine
 10
-43.556624
 20
-21.73075
 30
0.0
 11
-33.0
 21
-21.73075
 31
0.0
210
0.0
220
0.0
230
1.0
  0
LINE
  5
209
100
AcDbEntity
  8
0
370
    35
390
0
 62
     7
 48
0.263916
100
AcDbLine
 10
-43.556624
 20
-24.0
 30
0.0
 11
-33.0
 21
-24.0
 31
0.0
210
0.0
220
0.0
230
1.0
  0
LINE
  5
20A
100
AcDbEntity
  8
0
370
    35
390
0
 62
     7
 48
0.0625
100
AcDbLine
 10
-33.0
 20
-24.0
 30
0.0
 11
-33.0
 21
-26.5
 31
0.0
210
0.0
220
0.0
230
1.0
  0
LINE
  5
20B
100
AcDbEntity
  8
0
370
    35
390
0
 62
     7
 48
0.263916
100
AcDbLine
 10
-43.556624
 20
21.73075
 30
0.0
 11
-33.0
 21
21.73075
 31
0.0
210
0.0
220
0.0
230
1.0
  0
LINE
  5
20C
100
AcDbEntity
  8
0
370
    35
390
0
 62
     7
 48
0.486538
100
AcDbLine
 10
-33.0
 20
21.73075
 30
0.0
 11
-33.0
 21
2.26925
 31
0.0
210
0.0
220
0.0
230
1.0
  0
LINE
  5
20D
100
AcDbEntity
  8
0
370
    35
390
0
 62
     7
 48
0.263916
100
AcDbLine
 10
-43.556624
 20
2.26925
 30
0.0
 11
-33.0
 21
2.26925
 31
0.0
210
0.0
220
0.0
230
1.0
  0
LINE
  5
20E
100
AcDbEntity
  8
0
370
    13
390
0
 62
     7
100
AcDbLine
 10
52.414214
 20
24.0
 30
0.0
 11
52.414214
 21
-21.061981
 31
0.0
210
0.0
220
0.0
230
1.0
  0
LINE
  5
20F
100
AcDbEntity
  8
0
370
    13
390
0
 62
     7
100
AcDbLine
 10
51.707107
 20
24.292893
 30
0.0
 11
51.707107
 21
-21.319019
 31
0.0
210
0.0
220
0.0
230
1.0
  0
LINE
  5
210
100
AcDbEntity
  8
0
370
    13
390
0
 62
     7
 48
0.07345
100
AcDbLine
 10
52.414214
 20
-21.061981
 30
0.0
 11
52.414214
 21
-24.0
 31
0.0
210
0.0
220
0.0
230
1.0
  0
LINE
  5
211
100
AcDbEntity
  8
0
370
    13
390
0
 62
     7
 48
0.074347
100
AcDbLine
 10
51.707107
 20
-21.319019
 30
0.0
 11
51.707107
 21
-24.292893
 31
0.0
210
0.0
220
0.0
230
1.0
  0
LINE
  5
212
100
AcDbEntity
  8
0
370
    13
390
0
 62
     7
100
AcDbLine
 10
50.542893
 20
25.457107
 30
0.0
 11
50.542893
 21
-22.340713
 31
0.0
210
0.0
220
0.0
230
1.0
  0
LINE
  5
213
100
AcDbEntity
  8
0
370
    13
390
0
 62
     7
 48
0.07791
100
AcDbLine
 10
50.542893
 20
-22.340713
 30
0.0
 11
50.542893
 21
-25.457107
 31
0.0
210
0.0
220
0.0
230
1.0
  0
LINE
  5
214
100
AcDbEntity
  8
0
370
    13
390
0
 62
     7
100
AcDbLine
 10
49.835786
 20
25.75
 30
0.0
 11
49.835786
 21
-22.597751
 31
0.0
210
0.0
220
0.0
230
1.0
  0
LINE
  5
215
100
AcDbEntity
  8
0
370
    13
390
0
 62
     7
 48
0.078806
100
AcDbLine
 10
49.835786
 20
-22.597751
 30
0.0
 11
49.835786
 21
-25.75
 31
0.0
210
0.0
220
0.0
230
1.0
  0
LINE
  5
216
100
AcDbEntity
  8
0
370
    35
390
0
 62
     7
100
AcDbLine
 10
39.5
 20
25.75
 30
0.0
 11
39.5
 21
-22.597751
 31
0.0
210
0.0
220
0.0
230
1.0
  0
LINE
  5
217
100
AcDbEntity
  8
0
370
    35
390
0
 62
     7
 48
0.078806
100
AcDbLine
 10
39.5
 20
-22.597751
 30
0.0
 11
39.5
 21
-25.75
 31
0.0
210
0.0
220
0.0
230
1.0
  0
LINE
  5
218
100
AcDbEntity
  8
0
370
    35
390
0
 62
     7
100
AcDbLine
 10
18.5
 20
25.75
 30
0.0
 11
18.5
 21
-22.597751
 31
0.0
210
0.0
220
0.0
230
1.0
  0
LINE
  5
219
100
AcDbEntity
  8
0
370
    13
390
0
 62
     7
100
AcDbLine
 10
5.473354
 20
25.75
 30
0.0
 11
5.473354
 21
-22.597751
 31
0.0
210
0.0
220
0.0
230
1.0
  0
LINE
  5
21A
100
AcDbEntity
  8
0
370
    35
390
0
 62
     7
 48
0.078806
100
AcDbLine
 10
18.5
 20
-22.597751
 30
0.0
 11
18.5
 21
-25.75
 31
0.0
210
0.0
220
0.0
230
1.0
  0
LINE
  5
21B
100
AcDbEntity
  8
0
370
    13
390
0
 62
     7
 48
0.078806
100
AcDbLine
 10
5.473354
 20
-22.597751
 30
0.0
 11
5.473354
 21
-25.75
 31
0.0
210
0.0
220
0.0
230
1.0
  0
LINE
  5
21C
100
AcDbEntity
  8
0
370
    13
390
0
 62
     7
100
AcDbLine
 10
4.607328
 20
26.25
 30
0.0
 11
4.607328
 21
-23.036542
 31
0.0
210
0.0
220
0.0
230
1.0
  0
LINE
  5
21D
100
AcDbEntity
  8
0
370
    13
390
0
 62
     7
 48
0.080336
100
AcDbLine
 10
4.607328
 20
-23.036542
 30
0.0
 11
4.607328
 21
-26.25
 31
0.0
210
0.0
220
0.0
230
1.0
  0
LINE
  5
21E
100
AcDbEntity
  8
0
370
    13
390
0
 62
     7
100
AcDbLine
 10
2.788675
 20
29.4
 30
0.0
 11
2.788675
 21
-25.800927
 31
0.0
210
0.0
220
0.0
230
1.0
  0
LINE
  5
21F
100
AcDbEntity
  8
0
370
    13
390
0
 62
     7
 48
0.089977
100
AcDbLine
 10
2.788675
 20
-25.800927
 30
0.0
 11
2.788675
 21
-29.4
 31
0.0
210
0.0
220
0.0
230
1.0
  0
LINE
  5
220
100
AcDbEntity
  8
0
370
    13
390
0
 62
     7
100
AcDbLine
 10
1.92265
 20
29.9
 30
0.0
 11
1.92265
 21
-26.239719
 31
0.0
210
0.0
220
0.0
230
1.0
  0
LINE
  5
221
100
AcDbEntity
  8
0
370
    13
390
0
 62
     7
 48
0.091507
100
AcDbLine
 10
1.92265
 20
-26.239719
 30
0.0
 11
1.92265
 21
-29.9
 31
0.0
210
0.0
220
0.0
230
1.0
  0
LINE
  5
222
100
AcDbEntity
  8
0
370
    35
390
0
 62
     7
 48
0.024086
100
AcDbLine
 10
64.700962
 20
-23.036542
 30
0.0
 11
64.700962
 21
-24.0
 31
0.0
210
0.0
220
0.0
230
1.0
  0
LINE
  5
223
100
AcDbEntity
  8
0
370
    35
390
0
 62
     7
 48
0.032476
100
AcDbLine
 10
66.0
 20
-24.0
 30
0.0
 11
64.700962
 21
-24.0
 31
0.0
210
0.0
220
0.0
230
1.0
  0
LINE
  5
224
100
AcDbEntity
  8
0
370
    35
390
0
 62
     7
 48
0.032476
100
AcDbLine
 10
64.700962
 20
24.0
 30
0.0
 11
66.0
 21
24.0
 31
0.0
210
0.0
220
0.0
230
1.0
  0
LINE
  5
225
100
AcDbEntity
  8
0
370
    35
390
0
 62
     7
 48
0.069787
100
AcDbLine
 10
64.700962
 20
24.0
 30
0.0
 11
64.700962
 21
21.208522
 31
0.0
210
0.0
220
0.0
230
1.0
  0
SPLINE
  5
226
100
AcDbEntity
  8
0
370
    35
390
0
 62
     7
100
AcDbSpline
210
0.0
220
0.0
230
1.0
 70
     8
 71
     5
 72
    15
 73
     9
 74
     0
 42
0.0
 43
0.0
 40
43.177583702109928
 40
43.177583702109928
 40
43.177583702109928
 40
43.177583702109928
 40
43.177583702109928
 40
43.177583702109928
 40
78.125649455561245
 40
78.125649455561245
 40
78.125649455561245
 40
86.358489764938014
 40
86.358489764938014
 40
86.358489764938014
 40
86.358489764938014
 40
86.358489764938014
 40
86.358489764938014
 10
65.999999761762638
 20
11.999985911767643
 30
0.0
 10
65.999999761762652
 20
13.412563023866126
 30
0.0
 10
65.919996809312977
 20
14.824968403582822
 30
0.0
 10
65.760032430363211
 20
16.261544695310196
 30
0.0
 10
65.455732207894357
 20
18.097726532440095
 30
0.0
 10
64.998138804624858
 20
20.05682957230411
 30
0.0
 10
64.905110862115649
 20
20.435332458886077
 30
0.0
 10
64.806138782318683
 20
20.81904506996144
 30
0.0
 10
64.700961894323342
 20
21.208521868356542
 30
0.0
  0
SPLINE
  5
227
100
AcDbEntity
  8
0
370
    35
390
0
 62
     7
100
AcDbSpline
210
0.0
220
0.0
230
1.0
 70
     8
 71
     5
 72
    15
 73
     9
 74
     0
 42
0.0
 43
0.0
 40
0.0
 40
0.0
 40
0.0
 40
0.0
 40
0.0
 40
0.0
 40
37.142933453282652
 40
37.142933453282652
 40
37.142933453282652
 40
43.177583702109928
 40
43.177583702109928
 40
43.177583702109928
 40
43.177583702109928
 40
43.177583702109928
 40
43.177583702109928
 10
64.700961894323342
 20
2.791478131643454
 30
0.0
 10
65.175473485078328
 20
4.548625150262346
 30
0.0
 10
65.523691465523399
 20
6.1884470230035369
 30
0.0
 10
65.767334676088694
 20
7.7526818935860851
 30
0.0
 10
65.941595484825925
 20
9.5200934758158802
 30
0.0
 10
65.992843303130968
 20
11.268095811399228
 30
0.0
 10
65.997614346818551
 20
11.512147851917847
 30
0.0
 10
65.999999761762638
 20
11.756069442079445
 30
0.0
 10
65.999999761762638
 20
11.999985911767643
 30
0.0
  0
LINE
  5
228
100
AcDbEntity
  8
0
370
    35
390
0
 62
     7
 48
0.139574
100
AcDbLine
 10
64.700962
 20
2.791478
 30
0.0
 11
64.700962
 21
-2.791478
 31
0.0
210
0.0
220
0.0
230
1.0
  0
SPLINE
  5
229
100
AcDbEntity
  8
0
370
    35
390
0
 62
     7
100
AcDbSpline
210
0.0
220
0.0
230
1.0
 70
     8
 71
     5
 72
    15
 73
     9
 74
     0
 42
0.0
 43
0.0
 40
43.177583700852672
 40
43.177583700852672
 40
43.177583700852672
 40
43.177583700852672
 40
43.177583700852672
 40
43.177583700852672
 40
78.125649451325941
 40
78.125649451325941
 40
78.125649451325941
 40
86.358489762346309
 40
86.358489762346309
 40
86.358489762346309
 40
86.358489762346309
 40
86.358489762346309
 40
86.358489762346309
 10
65.999999761765025
 20
-12.000014088171739
 30
0.0
 10
65.999999761765011
 20
-10.587436976154491
 30
0.0
 10
65.919996809318945
 20
-9.1750315964588367
 30
0.0
 10
65.760032430343813
 20
-7.7384553047159583
 30
0.0
 10
65.455732207923319
 20
-5.9022734677255828
 30
0.0
 10
64.998138804679286
 20
-3.94317042791906
 30
0.0
 10
64.905110862155183
 20
-3.5646675412687574
 30
0.0
 10
64.806138782339687
 20
-3.1809549301163105
 30
0.0
 10
64.700961894323356
 20
-2.791478131643454
 30
0.0
  0
LINE
  5
22A
100
AcDbEntity
  8
0
370
    35
390
0
 62
     7
 48
0.045701
100
AcDbLine
 10
64.700962
 20
-21.208522
 30
0.0
 11
64.700962
 21
-23.036542
 31
0.0
210
0.0
220
0.0
230
1.0
  0
SPLINE
  5
22B
100
AcDbEntity
  8
0
370
    35
390
0
 62
     7
100
AcDbSpline
210
0.0
220
0.0
230
1.0
 70
     8
 71
     5
 72
    15
 73
     9
 74
     0
 42
0.0
 43
0.0
 40
0.0
 40
0.0
 40
0.0
 40
0.0
 40
0.0
 40
0.0
 40
37.142933437092324
 40
37.142933437092324
 40
37.142933437092324
 40
43.177583700852672
 40
43.177583700852672
 40
43.177583700852672
 40
43.177583700852672
 40
43.177583700852672
 40
43.177583700852672
 10
64.700961894323342
 20
-21.208521868356542
 30
0.0
 10
65.175473484871503
 20
-19.451374850503573
 30
0.0
 10
65.523691465219827
 20
-17.811552978392868
 30
0.0
 10
65.767334675834633
 20
-16.247318108100274
 30
0.0
 10
65.941595484664688
 20
-14.47990652592204
 30
0.0
 10
65.992843303097217
 20
-12.731904190366716
 30
0.0
 10
65.997614346808831
 20
-12.48785214924045
 30
0.0
 10
65.999999761765025
 20
-12.243930558470279
 30
0.0
 10
65.999999761765025
 20
-12.000014088171739
 30
0.0
  0
LINE
  5
22C
100
AcDbEntity
  8
0
370
    35
390
0
 62
     7
 48
0.223774
100
AcDbLine
 10
64.700962
 20
24.0
 30
0.0
 11
55.75
 21
24.0
 31
0.0
210
0.0
220
0.0
230
1.0
  0
LINE
  5
22D
100
AcDbEntity
  8
0
370
    35
390
0
 62
     7
 48
0.223774
100
AcDbLine
 10
64.700962
 20
21.208522
 30
0.0
 11
55.75
 21
21.208522
 31
0.0
210
0.0
220
0.0
230
1.0
  0
LINE
  5
22E
100
AcDbEntity
  8
0
370
    35
390
0
 62
     7
 48
0.069787
100
AcDbLine
 10
55.75
 20
24.0
 30
0.0
 11
55.75
 21
21.208522
 31
0.0
210
0.0
220
0.0
230
1.0
  0
LINE
  5
22F
100
AcDbEntity
  8
0
370
    35
390
0
 62
     7
 48
0.223774
100
AcDbLine
 10
64.700962
 20
-2.791478
 30
0.0
 11
55.75
 21
-2.791478
 31
0.0
210
0.0
220
0.0
230
1.0
  0
LINE
  5
230
100
AcDbEntity
  8
0
370
    35
390
0
 62
     7
 48
0.139574
100
AcDbLine
 10
55.75
 20
2.791478
 30
0.0
 11
55.75
 21
-2.791478
 31
0.0
210
0.0
220
0.0
230
1.0
  0
LINE
  5
231
100
AcDbEntity
  8
0
370
    35
390
0
 62
     7
 48
0.223774
100
AcDbLine
 10
64.700962
 20
2.791478
 30
0.0
 11
55.75
 21
2.791478
 31
0.0
210
0.0
220
0.0
230
1.0
  0
LINE
  5
232
100
AcDbEntity
  8
0
370
    35
390
0
 62
     7
 48
0.223774
100
AcDbLine
 10
64.700962
 20
-21.208522
 30
0.0
 11
55.75
 21
-21.208522
 31
0.0
210
0.0
220
0.0
230
1.0
  0
LINE
  5
233
100
AcDbEntity
  8
0
370
    35
390
0
 62
     7
 48
0.045701
100
AcDbLine
 10
55.75
 20
-21.208522
 30
0.0
 11
55.75
 21
-23.036542
 31
0.0
210
0.0
220
0.0
230
1.0
  0
LINE
  5
234
100
AcDbEntity
  8
0
370
    35
390
0
 62
     7
 48
0.223774
100
AcDbLine
 10
64.700962
 20
-24.0
 30
0.0
 11
55.75
 21
-24.0
 31
0.0
210
0.0
220
0.0
230
1.0
  0
LINE
  5
235
100
AcDbEntity
  8
0
370
    35
390
0
 62
     7
 48
0.024086
100
AcDbLine
 10
55.75
 20
-23.036542
 30
0.0
 11
55.75
 21
-24.0
 31
0.0
210
0.0
220
0.0
230
1.0
  0
LINE
  5
236
100
AcDbEntity
  8
0
370
    13
390
0
 62
     7
 48
0.07345
100
AcDbLine
 10
53.085786
 20
-21.061981
 30
0.0
 11
53.085786
 21
-24.0
 31
0.0
210
0.0
220
0.0
230
1.0
  0
LINE
  5
237
100
AcDbEntity
  8
0
370
    13
390
0
 62
     7
 48
0.22655
100
AcDbLine
 10
53.085786
 20
-12.0
 30
0.0
 11
53.085786
 21
-21.061981
 31
0.0
210
0.0
220
0.0
230
1.0
  0
LINE
  5
238
100
AcDbEntity
  8
0
370
    13
390
0
 62
     7
 48
0.3
100
AcDbLine
 10
53.085786
 20
24.0
 30
0.0
 11
53.085786
 21
12.0
 31
0.0
210
0.0
220
0.0
230
1.0
  0
LINE
  5
239
100
AcDbEntity
  8
0
370
    13
390
0
 62
     7
100
AcDbLine
 10
53.085786
 20
12.0
 30
0.0
 11
53.085786
 21
-12.0
 31
0.0
210
0.0
220
0.0
230
1.0
  0
LINE
  5
23A
100
AcDbEntity
  8
0
370
    13
390
0
 62
     7
 48
0.067025
100
AcDbLine
 10
53.792893
 20
-21.319019
 30
0.0
 11
53.792893
 21
-24.0
 31
0.0
210
0.0
220
0.0
230
1.0
  0
LINE
  5
23B
100
AcDbEntity
  8
0
370
    35
390
0
 62
     7
 48
0.017678
100
AcDbLine
 10
53.085786
 20
-24.0
 30
0.0
 11
53.792893
 21
-24.0
 31
0.0
210
0.0
220
0.0
230
1.0
  0
LINE
  5
23C
100
AcDbEntity
  8
0
370
    13
390
0
 62
     7
 48
0.218573
100
AcDbLine
 10
53.792893
 20
24.0
 30
0.0
 11
53.792893
 21
15.257069
 31
0.0
210
0.0
220
0.0
230
1.0
  0
SPLINE
  5
23D
100
AcDbEntity
  8
0
370
    35
390
0
 62
     7
100
AcDbSpline
210
0.0
220
0.0
230
1.0
 70
     8
 71
     5
 72
    15
 73
     9
 74
     0
 42
0.0
 43
0.0
 40
0.0
 40
0.0
 40
0.0
 40
0.0
 40
0.0
 40
0.0
 40
1.2356817416138972
 40
1.2356817416138972
 40
1.2356817416138972
 40
5.615090266257317
 40
5.615090266257317
 40
5.615090266257317
 40
5.615090266257317
 40
5.615090266257317
 40
5.615090266257317
 10
53.085786437626908
 20
12.0
 30
0.0
 10
53.120044360473145
 20
12.145344057323637
 30
0.0
 10
53.15426026714016
 20
12.290700944966057
 30
0.0
 10
53.174263533531075
 20
12.375479088418547
 30
0.0
 10
53.329300550069874
 20
13.036134771025962
 30
0.0
 10
53.480849070736198
 20
13.697847605437802
 30
0.0
 10
53.593937189542629
 20
14.214482985533829
 30
0.0
 10
53.699443865176384
 20
14.734323555709933
 30
0.0
 10
53.792893218813454
 20
15.257068575499204
 30
0.0
  0
LINE
  5
23E
100
AcDbEntity
  8
0
370
    35
390
0
 62
     7
 48
0.017678
100
AcDbLine
 10
53.792893
 20
24.0
 30
0.0
 11
53.085786
 21
24.0
 31
0.0
210
0.0
220
0.0
230
1.0
  0
SPLINE
  5
23F
100
AcDbEntity
  8
0
370
    35
390
0
 62
     7
100
AcDbSpline
210
0.0
220
0.0
230
1.0
 70
     8
 71
     5
 72
    15
 73
     9
 74
     0
 42
0.0
 43
0.0
 40
0.0
 40
0.0
 40
0.0
 40
0.0
 40
0.0
 40
0.0
 40
5.4903596614077514
 40
5.4903596614077514
 40
5.4903596614077514
 40
5.5150359589375162
 40
5.5150359589375162
 40
5.5150359589375162
 40
5.5150359589375162
 40
5.5150359589375162
 40
5.5150359589375162
 10
53.792893218813447
 20
8.7429314245008136
 30
0.0
 10
53.675738000544477
 20
9.3982843457235496
 30
0.0
 10
53.539632244872045
 20
10.049072332787361
 30
0.0
 10
53.393562174663714
 20
10.693884754779292
 30
0.0
 10
53.240736810606798
 20
11.342599749897293
 30
0.0
 10
53.087838807141345
 20
11.991292531544282
 30
0.0
 10
53.087154683538792
 20
11.994195020900204
 30
0.0
 10
53.086470560948015
 20
11.997097510560446
 30
0.0
 10
53.085786437626908
 20
11.999999999997586
 30
0.0
  0
LINE
  5
240
100
AcDbEntity
  8
0
370
    13
390
0
 62
     7
 48
0.437147
100
AcDbLine
 10
53.792893
 20
8.742931
 30
0.0
 11
53.792893
 21
-8.742931
 31
0.0
210
0.0
220
0.0
230
1.0
  0
SPLINE
  5
241
100
AcDbEntity
  8
0
370
    35
390
0
 62
     7
100
AcDbSpline
210
0.0
220
0.0
230
1.0
 70
     8
 71
     5
 72
    15
 73
     9
 74
     0
 42
0.0
 43
0.0
 40
0.0
 40
0.0
 40
0.0
 40
0.0
 40
0.0
 40
0.0
 40
1.2356816997548927
 40
1.2356816997548927
 40
1.2356816997548927
 40
5.6150902244051215
 40
5.6150902244051215
 40
5.6150902244051215
 40
5.6150902244051215
 40
5.6150902244051215
 40
5.6150902244051215
 10
53.085786437626915
 20
-12.0
 30
0.0
 10
53.120044359312658
 20
-11.854655947599927
 30
0.0
 10
53.154260264822028
 20
-11.709299064881941
 30
0.0
 10
53.174263535837198
 20
-11.624520901756011
 30
0.0
 10
53.329300551192709
 20
-10.963865224064962
 30
0.0
 10
53.480849070736063
 20
-10.302152394585246
 30
0.0
 10
53.593937189542828
 20
-9.7855170144668531
 30
0.0
 10
53.699443865176235
 20
-9.2656764442908681
 30
0.0
 10
53.792893218813447
 20
-8.7429314245007834
 30
0.0
  0
LINE
  5
242
100
AcDbEntity
  8
0
370
    13
390
0
 62
     7
 48
0.151549
100
AcDbLine
 10
53.792893
 20
-15.257069
 30
0.0
 11
53.792893
 21
-21.319019
 31
0.0
210
0.0
220
0.0
230
1.0
  0
SPLINE
  5
243
100
AcDbEntity
  8
0
370
    35
390
0
 62
     7
100
AcDbSpline
210
0.0
220
0.0
230
1.0
 70
     8
 71
     5
 72
    15
 73
     9
 74
     0
 42
0.0
 43
0.0
 40
0.0
 40
0.0
 40
0.0
 40
0.0
 40
0.0
 40
0.0
 40
5.4903596551630649
 40
5.4903596551630649
 40
5.4903596551630649
 40
5.5150359527013686
 40
5.5150359527013686
 40
5.5150359527013686
 40
5.5150359527013686
 40
5.5150359527013686
 40
5.5150359527013686
 10
53.792893218813454
 20
-15.257068575499215
 30
0.0
 10
53.675738000677732
 20
-14.601715655021872
 30
0.0
 10
53.539632245175383
 20
-13.950927668695968
 30
0.0
 10
53.393562172370302
 20
-13.306115244097326
 30
0.0
 10
53.24073681046174
 20
-12.657400249362546
 30
0.0
 10
53.087838807140258
 20
-12.008707468454039
 30
0.0
 10
53.087154683539289
 20
-12.005804979096796
 30
0.0
 10
53.08647056094825
 20
-12.002902489435552
 30
0.0
 10
53.085786437626908
 20
-11.999999999997408
 30
0.0
  0
LINE
  5
244
100
AcDbEntity
  8
0
370
    35
390
0
 62
     7
 48
0.048928
100
AcDbLine
 10
53.792893
 20
-24.0
 30
0.0
 11
55.75
 21
-24.0
 31
0.0
210
0.0
220
0.0
230
1.0
  0
LINE
  5
245
100
AcDbEntity
  8
0
370
    35
390
0
 62
     7
 48
0.048928
100
AcDbLine
 10
53.792893
 20
24.0
 30
0.0
 11
55.75
 21
24.0
 31
0.0
210
0.0
220
0.0
230
1.0
  0
SPLINE
  5
246
100
AcDbEntity
  8
0
370
    35
390
0
 62
     7
100
AcDbSpline
210
0.0
220
0.0
230
1.0
 70
     8
 71
     5
 72
    12
 73
     6
 74
     0
 42
0.0
 43
0.0
 40
0.0
 40
0.0
 40
0.0
 40
0.0
 40
0.0
 40
0.0
 40
27.279097789404727
 40
27.279097789404727
 40
27.279097789404727
 40
27.279097789404727
 40
27.279097789404727
 40
27.279097789404727
 10
53.792893218813454
 20
15.257068575499227
 30
0.0
 10
53.994167344708792
 20
16.382973066319479
 30
0.0
 10
54.283896300286699
 20
17.528840501546615
 30
0.0
 10
54.666731171802844
 20
18.706589048367583
 30
0.0
 10
55.15124955436572
 20
19.928414206459983
 30
0.0
 10
55.750000000000007
 20
21.208521868356534
 30
0.0
  0
SPLINE
  5
247
100
AcDbEntity
  8
0
370
    35
390
0
 62
     7
100
AcDbSpline
210
0.0
220
0.0
230
1.0
 70
     8
 71
     5
 72
    12
 73
     6
 74
     0
 42
0.0
 43
0.0
 40
0.0
 40
0.0
 40
0.0
 40
0.0
 40
0.0
 40
0.0
 40
27.279097784135615
 40
27.279097784135615
 40
27.279097784135615
 40
27.279097784135615
 40
27.279097784135615
 40
27.279097784135615
 10
53.792893218813468
 20
-8.7429314245007834
 30
0.0
 10
53.994167344669933
 20
-7.6170269338980034
 30
0.0
 10
54.283896300017304
 20
-6.4711594989050001
 30
0.0
 10
54.666731171990023
 20
-5.2934109511425262
 30
0.0
 10
55.151249554481375
 20
-4.0715857932927557
 30
0.0
 10
55.750000000000014
 20
-2.7914781316434647
 30
0.0
  0
SPLINE
  5
248
100
AcDbEntity
  8
0
370
    35
390
0
 62
     7
100
AcDbSpline
210
0.0
220
0.0
230
1.0
 70
     8
 71
     5
 72
    12
 73
     6
 74
     0
 42
0.0
 43
0.0
 40
0.0
 40
0.0
 40
0.0
 40
0.0
 40
0.0
 40
0.0
 40
27.279097792475365
 40
27.279097792475365
 40
27.279097792475365
 40
27.279097792475365
 40
27.279097792475365
 40
27.279097792475365
 10
53.792893218813454
 20
8.7429314245007639
 30
0.0
 10
53.994167344731451
 20
7.6170269335537739
 30
0.0
 10
54.28389630020218
 20
6.4711594982043534
 30
0.0
 10
54.666731171889978
 20
5.2934109518001664
 30
0.0
 10
55.151249554298317
 20
4.0715857936841138
 30
0.0
 10
55.750000000000007
 20
2.7914781316434687
 30
0.0
  0
SPLINE
  5
249
100
AcDbEntity
  8
0
370
    35
390
0
 62
     7
100
AcDbSpline
210
0.0
220
0.0
230
1.0
 70
     8
 71
     5
 72
    12
 73
     6
 74
     0
 42
0.0
 43
0.0
 40
0.0
 40
0.0
 40
0.0
 40
0.0
 40
0.0
 40
0.0
 40
27.279097790605416
 40
27.279097790605416
 40
27.279097790605416
 40
27.279097790605416
 40
27.279097790605416
 40
27.279097790605416
 10
53.792893218813468
 20
-15.257068575499177
 30
0.0
 10
53.99416734471766
 20
-16.382973066368987
 30
0.0
 10
54.283896300317366
 20
-17.528840501692152
 30
0.0
 10
54.666731171765363
 20
-18.706589048242137
 30
0.0
 10
55.151249554339373
 20
-19.928414206403641
 30
0.0
 10
55.750000000000014
 20
-21.208521868356534
 30
0.0
  0
ARC
  5
24A
100
AcDbEntity
  8
0
370
    35
390
0
 62
     7
100
AcDbCircle
 10
-17.613249
 20
29.5
 30
0.0
 40
1.0
210
0.0
220
0.0
230
1.0
100
AcDbArc
 50
90.0
 51
150.0
  0
ARC
  5
24B
100
AcDbEntity
  8
0
370
    35
390
0
 62
     7
100
AcDbCircle
 10
-17.613249
 20
-29.5
 30
0.0
 40
1.0
210
0.0
220
0.0
230
1.0
100
AcDbArc
 50
210.0
 51
270.0
  0
LINE
  5
24C
100
AcDbEntity
  8
0
370
    35
390
0
 62
     7
 48
0.086603
100
AcDbLine
 10
-20.211325
 20
27.0
 30
0.0
 11
-18.479274
 21
30.0
 31
0.0
210
0.0
220
0.0
230
1.0
  0
LINE
  5
24D
100
AcDbEntity
  8
0
370
    35
390
0
 62
     7
 48
0.086603
100
AcDbLine
 10
-20.211325
 20
-27.0
 30
0.0
 11
-18.479274
 21
-30.0
 31
0.0
210
0.0
220
0.0
230
1.0
  0
ARC
  5
24E
100
AcDbEntity
  8
0
370
    35
390
0
 62
     7
100
AcDbCircle
 10
-21.07735
 20
27.5
 30
0.0
 40
1.0
210
0.0
220
0.0
230
1.0
100
AcDbArc
 50
269.999999
 51
330.000002
  0
ARC
  5
24F
100
AcDbEntity
  8
0
370
    35
390
0
 62
     7
100
AcDbCircle
 10
-21.07735
 20
-27.5
 30
0.0
 40
1.0
210
0.0
220
0.0
230
1.0
100
AcDbArc
 50
29.999998
 51
90.000001
  0
LINE
  5
250
100
AcDbEntity
  8
0
370
    35
390
0
 62
     7
 48
0.427831
100
AcDbLine
 10
-17.613249
 20
-30.5
 30
0.0
 11
-0.5
 21
-30.5
 31
0.0
210
0.0
220
0.0
230
1.0
  0
LINE
  5
251
100
AcDbEntity
  8
0
370
    35
390
0
 62
     7
 48
0.427831
100
AcDbLine
 10
-17.613249
 20
30.5
 30
0.0
 11
-0.5
 21
30.5
 31
0.0
210
0.0
220
0.0
230
1.0
  0
LINE
  5
252
100
AcDbEntity
  8
0
370
    35
390
0
 62
     7
 48
0.017678
100
AcDbLine
 10
0.0
 20
-30.0
 30
0.0
 11
-0.5
 21
-30.5
 31
0.0
210
0.0
220
0.0
230
1.0
  0
LINE
  5
253
100
AcDbEntity
  8
0
370
    35
390
0
 62
     7
 48
0.017678
100
AcDbLine
 10
0.0
 20
30.0
 30
0.0
 11
-0.5
 21
30.5
 31
0.0
210
0.0
220
0.0
230
1.0
  0
LINE
  5
254
100
AcDbEntity
  8
0
370
    35
390
0
 62
     7
 48
0.298066
100
AcDbLine
 10
-33.0
 20
26.5
 30
0.0
 11
-21.07735
 21
26.5
 31
0.0
210
0.0
220
0.0
230
1.0
  0
LINE
  5
255
100
AcDbEntity
  8
0
370
    35
390
0
 62
     7
 48
0.298066
100
AcDbLine
 10
-33.0
 20
-26.5
 30
0.0
 11
-21.07735
 21
-26.5
 31
0.0
210
0.0
220
0.0
230
1.0
  0
ARC
  5
256
100
AcDbEntity
  8
0
370
    35
390
0
 62
     7
100
AcDbCircle
 10
52.414214
 20
25.0
 30
0.0
 40
1.0
210
0.0
220
0.0
230
1.0
100
AcDbArc
 50
225.0
 51
270.0
  0
ARC
  5
257
100
AcDbEntity
  8
0
370
    35
390
0
 62
     7
100
AcDbCircle
 10
52.414214
 20
-25.0
 30
0.0
 40
1.0
210
0.0
220
0.0
230
1.0
100
AcDbArc
 50
90.0
 51
135.0
  0
LINE
  5
258
100
AcDbEntity
  8
0
370
    35
390
0
 62
     7
 48
0.041161
100
AcDbLine
 10
51.707107
 20
24.292893
 30
0.0
 11
50.542893
 21
25.457107
 31
0.0
210
0.0
220
0.0
230
1.0
  0
LINE
  5
259
100
AcDbEntity
  8
0
370
    35
390
0
 62
     7
 48
0.041161
100
AcDbLine
 10
51.707107
 20
-24.292893
 30
0.0
 11
50.542893
 21
-25.457107
 31
0.0
210
0.0
220
0.0
230
1.0
  0
ARC
  5
25A
100
AcDbEntity
  8
0
370
    35
390
0
 62
     7
100
AcDbCircle
 10
49.835786
 20
24.75
 30
0.0
 40
1.0
210
0.0
220
0.0
230
1.0
100
AcDbArc
 50
45.0
 51
90.0
  0
ARC
  5
25B
100
AcDbEntity
  8
0
370
    35
390
0
 62
     7
100
AcDbCircle
 10
49.835786
 20
-24.75
 30
0.0
 40
1.0
210
0.0
220
0.0
230
1.0
100
AcDbArc
 50
270.0
 51
315.0
  0
LINE
  5
25C
100
AcDbEntity
  8
0
370
    35
390
0
 62
     7
 48
0.258395
100
AcDbLine
 10
49.835786
 20
25.75
 30
0.0
 11
39.5
 21
25.75
 31
0.0
210
0.0
220
0.0
230
1.0
  0
LINE
  5
25D
100
AcDbEntity
  8
0
370
    35
390
0
 62
     7
 48
0.258395
100
AcDbLine
 10
49.835786
 20
-25.75
 30
0.0
 11
39.5
 21
-25.75
 31
0.0
210
0.0
220
0.0
230
1.0
  0
LINE
  5
25E
100
AcDbEntity
  8
0
370
    35
390
0
 62
     7
100
AcDbLine
 10
39.5
 20
25.45
 30
0.0
 11
18.5
 21
25.45
 31
0.0
210
0.0
220
0.0
230
1.0
  0
LINE
  5
25F
100
AcDbEntity
  8
0
370
    35
390
0
 62
     7
100
AcDbLine
 10
39.5
 20
-25.45
 30
0.0
 11
18.5
 21
-25.45
 31
0.0
210
0.0
220
0.0
230
1.0
  0
LINE
  5
260
100
AcDbEntity
  8
0
370
    35
390
0
 62
     7
 48
0.325666
100
AcDbLine
 10
18.5
 20
25.75
 30
0.0
 11
5.473354
 21
25.75
 31
0.0
210
0.0
220
0.0
230
1.0
  0
LINE
  5
261
100
AcDbEntity
  8
0
370
    35
390
0
 62
     7
 48
0.325666
100
AcDbLine
 10
18.5
 20
-25.75
 30
0.0
 11
5.473354
 21
-25.75
 31
0.0
210
0.0
220
0.0
230
1.0
  0
ARC
  5
262
100
AcDbEntity
  8
0
370
    35
390
0
 62
     7
100
AcDbCircle
 10
5.473354
 20
26.75
 30
0.0
 40
1.0
210
0.0
220
0.0
230
1.0
100
AcDbArc
 50
210.0
 51
270.0
  0
ARC
  5
263
100
AcDbEntity
  8
0
370
    35
390
0
 62
     7
100
AcDbCircle
 10
5.473354
 20
-26.75
 30
0.0
 40
1.0
210
0.0
220
0.0
230
1.0
100
AcDbArc
 50
90.0
 51
150.0
  0
LINE
  5
264
100
AcDbEntity
  8
0
370
    35
390
0
 62
     7
 48
0.090933
100
AcDbLine
 10
4.607328
 20
26.25
 30
0.0
 11
2.788675
 21
29.4
 31
0.0
210
0.0
220
0.0
230
1.0
  0
LINE
  5
265
100
AcDbEntity
  8
0
370
    35
390
0
 62
     7
 48
0.090933
100
AcDbLine
 10
4.607328
 20
-26.25
 30
0.0
 11
2.788675
 21
-29.4
 31
0.0
210
0.0
220
0.0
230
1.0
  0
ARC
  5
266
100
AcDbEntity
  8
0
370
    35
390
0
 62
     7
100
AcDbCircle
 10
1.92265
 20
28.9
 30
0.0
 40
1.0
210
0.0
220
0.0
230
1.0
100
AcDbArc
 50
30.000002
 51
89.999999
  0
ARC
  5
267
100
AcDbEntity
  8
0
370
    35
390
0
 62
     7
100
AcDbCircle
 10
1.92265
 20
-28.9
 30
0.0
 40
1.0
210
0.0
220
0.0
230
1.0
100
AcDbArc
 50
270.000001
 51
329.999998
  0
LINE
  5
268
100
AcDbEntity
  8
0
370
    35
390
0
 62
     7
 48
0.048066
100
AcDbLine
 10
1.92265
 20
29.9
 30
0.0
 11
0.0
 21
29.9
 31
0.0
210
0.0
220
0.0
230
1.0
  0
LINE
  5
269
100
AcDbEntity
  8
0
370
    35
390
0
 62
     7
 48
0.048066
100
AcDbLine
 10
1.92265
 20
-29.9
 30
0.0
 11
0.0
 21
-29.9
 31
0.0
210
0.0
220
0.0
230
1.0
  0
LINE
  5
26A
100
AcDbEntity
  8
0
370
    35
390
0
 62
     7
 48
0.016789
100
AcDbLine
 10
53.085786
 20
-24.0
 30
0.0
 11
52.414214
 21
-24.0
 31
0.0
210
0.0
220
0.0
230
1.0
  0
LINE
  5
26B
100
AcDbEntity
  8
0
370
    35
390
0
 62
     7
 48
0.016789
100
AcDbLine
 10
53.085786
 20
24.0
 30
0.0
 11
52.414214
 21
24.0
 31
0.0
210
0.0
220
0.0
230
1.0
  0
ENDBLK
  5
26C
100
AcDbEntity
  8
0
390
0
100
AcDbBlockEnd
  0
ENDSEC
  0
SECTION
  2
ENTITIES
  0
VIEWPORT
  5
64
100
AcDbEntity
 67
     1
  8
0
370
     0
390
0
 62
     0
 48
0.0
100
AcDbViewport
 10
0.0
 20
0.0
 30
0.0
 40
1000.0
 41
1000.0
 68
     1
 69
     1
 12
0.0
 22
0.0
 13
0.0
 23
0.0
 14
1.0
 24
1.0
 15
1.0
 25
1.0
 16
0.0
 26
0.0
 36
1.0
 17
0.0
 27
0.0
 37
0.0
 42
50.0
 43
0.0
 44
0.0
 45
1000.0
 50
0.0
 51
0.0
 72
   100
 90
        0
340
0
  1

281
     0
 71
     0
 74
     1
110
0.0
120
0.0
130
0.0
111
1.0
121
0.0
131
0.0
112
0.0
122
1.0
132
0.0
345
0
346
0
 79
     0
146
0.0
  0
LINE
  5
26
100
AcDbEntity
  8
0
370
    35
390
0
 62
     7
100
AcDbLine
 10
0.0
 20
0.0
 30
0.0
 11
210.0
 21
0.0
 31
0.0
210
0.0
220
0.0
230
1.0
  0
LINE
  5
27
100
AcDbEntity
  8
0
370
    35
390
0
 62
     7
100
AcDbLine
 10
210.0
 20
0.0
 30
0.0
 11
210.0
 21
297.0
 31
0.0
210
0.0
220
0.0
230
1.0
  0
LINE
  5
28
100
AcDbEntity
  8
0
370
    35
390
0
 62
     7
100
AcDbLine
 10
210.0
 20
297.0
 30
0.0
 11
0.0
 21
297.0
 31
0.0
210
0.0
220
0.0
230
1.0
  0
LINE
  5
29
100
AcDbEntity
  8
0
370
    35
390
0
 62
     7
100
AcDbLine
 10
0.0
 20
297.0
 30
0.0
 11
0.0
 21
0.0
 31
0.0
210
0.0
220
0.0
230
1.0
  0
LINE
  5
2A
100
AcDbEntity
  8
0
370
    35
390
0
 62
     7
100
AcDbLine
 10
20.0
 20
10.0
 30
0.0
 11
200.0
 21
10.0
 31
0.0
210
0.0
220
0.0
230
1.0
  0
LINE
  5
2B
100
AcDbEntity
  8
0
370
    35
390
0
 62
     7
100
AcDbLine
 10
200.0
 20
10.0
 30
0.0
 11
200.0
 21
287.0
 31
0.0
210
0.0
220
0.0
230
1.0
  0
LINE
  5
2C
100
AcDbEntity
  8
0
370
    35
390
0
 62
     7
100
AcDbLine
 10
200.0
 20
287.0
 30
0.0
 11
20.0
 21
287.0
 31
0.0
210
0.0
220
0.0
230
1.0
  0
LINE
  5
2D
100
AcDbEntity
  8
0
370
    35
390
0
 62
     7
100
AcDbLine
 10
20.0
 20
287.0
 30
0.0
 11
20.0
 21
10.0
 31
0.0
210
0.0
220
0.0
230
1.0
  0
LINE
  5
2E
100
AcDbEntity
  8
0
370
    13
390
0
 62
     7
 48
0.1
100
AcDbLine
 10
155.0
 20
287.0
 30
0.0
 11
155.0
 21
291.0
 31
0.0
210
0.0
220
0.0
230
1.0
  0
LINE
  5
2F
100
AcDbEntity
  8
0
370
    13
390
0
 62
     7
 48
0.1
100
AcDbLine
 10
200.0
 20
240.833333
 30
0.0
 11
204.0
 21
240.833333
 31
0.0
210
0.0
220
0.0
230
1.0
  0
LINE
  5
30
100
AcDbEntity
  8
0
370
    13
390
0
 62
     7
 48
0.1
100
AcDbLine
 10
200.0
 20
194.666667
 30
0.0
 11
204.0
 21
194.666667
 31
0.0
210
0.0
220
0.0
230
1.0
  0
LINE
  5
31
100
AcDbEntity
  8
0
370
    13
390
0
 62
     7
 48
0.1
100
AcDbLine
 10
200.0
 20
148.5
 30
0.0
 11
204.0
 21
148.5
 31
0.0
210
0.0
220
0.0
230
1.0
  0
LINE
  5
32
100
AcDbEntity
  8
0
370
    13
390
0
 62
     7
 48
0.1
100
AcDbLine
 10
200.0
 20
102.333333
 30
0.0
 11
204.0
 21
102.333333
 31
0.0
210
0.0
220
0.0
230
1.0
  0
LINE
  5
33
100
AcDbEntity
  8
0
370
    13
390
0
 62
     7
 48
0.1
100
AcDbLine
 10
200.0
 20
56.166667
 30
0.0
 11
204.0
 21
56.166667
 31
0.0
210
0.0
220
0.0
230
1.0
  0
LINE
  5
34
100
AcDbEntity
  8
0
370
    13
390
0
 62
     7
 48
0.1
100
AcDbLine
 10
110.0
 20
291.0
 30
0.0
 11
110.0
 21
287.0
 31
0.0
210
0.0
220
0.0
230
1.0
  0
LINE
  5
35
100
AcDbEntity
  8
0
370
    13
390
0
 62
     7
 48
0.1
100
AcDbLine
 10
65.0
 20
287.0
 30
0.0
 11
65.0
 21
291.0
 31
0.0
210
0.0
220
0.0
230
1.0
  0
LINE
  5
36
100
AcDbEntity
  8
0
370
    13
390
0
 62
     7
 48
0.1
100
AcDbLine
 10
16.0
 20
102.333333
 30
0.0
 11
20.0
 21
102.333333
 31
0.0
210
0.0
220
0.0
230
1.0
  0
LINE
  5
37
100
AcDbEntity
  8
0
370
    13
390
0
 62
     7
 48
0.1
100
AcDbLine
 10
16.0
 20
56.166667
 30
0.0
 11
20.0
 21
56.166667
 31
0.0
210
0.0
220
0.0
230
1.0
  0
LINE
  5
38
100
AcDbEntity
  8
0
370
    13
390
0
 62
     7
 48
0.1
100
AcDbLine
 10
16.0
 20
194.666667
 30
0.0
 11
20.0
 21
194.666667
 31
0.0
210
0.0
220
0.0
230
1.0
  0
LINE
  5
39
100
AcDbEntity
  8
0
370
    13
390
0
 62
     7
 48
0.1
100
AcDbLine
 10
16.0
 20
148.5
 30
0.0
 11
20.0
 21
148.5
 31
0.0
210
0.0
220
0.0
230
1.0
  0
LINE
  5
3A
100
AcDbEntity
  8
0
370
    13
390
0
 62
     7
 48
0.1
100
AcDbLine
 10
16.0
 20
240.833333
 30
0.0
 11
20.0
 21
240.833333
 31
0.0
210
0.0
220
0.0
230
1.0
  0
LINE
  5
3B
100
AcDbEntity
  8
0
370
    13
390
0
 62
     7
 48
0.1
100
AcDbLine
 10
155.0
 20
6.0
 30
0.0
 11
155.0
 21
10.0
 31
0.0
210
0.0
220
0.0
230
1.0
  0
LINE
  5
3C
100
AcDbEntity
  8
0
370
    13
390
0
 62
     7
 48
0.1
100
AcDbLine
 10
110.0
 20
10.0
 30
0.0
 11
110.0
 21
6.0
 31
0.0
210
0.0
220
0.0
230
1.0
  0
LINE
  5
3D
100
AcDbEntity
  8
0
370
    13
390
0
 62
     7
 48
0.1
100
AcDbLine
 10
65.0
 20
6.0
 30
0.0
 11
65.0
 21
10.0
 31
0.0
210
0.0
220
0.0
230
1.0
  0
LINE
  5
3E
100
AcDbEntity
  8
0
370
    13
390
0
 62
     7
 48
0.25
100
AcDbLine
 10
16.0
 20
148.5
 30
0.0
 11
6.0
 21
148.5
 31
0.0
210
0.0
220
0.0
230
1.0
  0
LINE
  5
3F
100
AcDbEntity
  8
0
370
    13
390
0
 62
     7
 48
0.141421
100
AcDbLine
 10
200.0
 20
287.0
 30
0.0
 11
204.0
 21
291.0
 31
0.0
210
0.0
220
0.0
230
1.0
  0
LINE
  5
40
100
AcDbEntity
  8
0
370
    13
390
0
 62
     7
 48
0.141421
100
AcDbLine
 10
20.0
 20
287.0
 30
0.0
 11
16.0
 21
291.0
 31
0.0
210
0.0
220
0.0
230
1.0
  0
LINE
  5
41
100
AcDbEntity
  8
0
370
    13
390
0
 62
     7
100
AcDbLine
 10
16.0
 20
291.0
 30
0.0
 11
204.0
 21
291.0
 31
0.0
210
0.0
220
0.0
230
1.0
  0
LINE
  5
42
100
AcDbEntity
  8
0
370
    13
390
0
 62
     7
100
AcDbLine
 10
204.0
 20
6.0
 30
0.0
 11
204.0
 21
291.0
 31
0.0
210
0.0
220
0.0
230
1.0
  0
LINE
  5
43
100
AcDbEntity
  8
0
370
    13
390
0
 62
     7
100
AcDbLine
 10
204.0
 20
6.0
 30
0.0
 11
16.0
 21
6.0
 31
0.0
210
0.0
220
0.0
230
1.0
  0
LINE
  5
44
100
AcDbEntity
  8
0
370
    13
390
0
 62
     7
100
AcDbLine
 10
16.0
 20
291.0
 30
0.0
 11
16.0
 21
6.0
 31
0.0
210
0.0
220
0.0
230
1.0
  0
LINE
  5
45
100
AcDbEntity
  8
0
370
    13
390
0
 62
     7
 48
0.141421
100
AcDbLine
 10
20.0
 20
10.0
 30
0.0
 11
16.0
 21
6.0
 31
0.0
210
0.0
220
0.0
230
1.0
  0
LINE
  5
46
100
AcDbEntity
  8
0
370
    13
390
0
 62
     7
 48
0.1
100
AcDbLine
 10
200.0
 20
10.0
 30
0.0
 11
204.0
 21
10.0
 31
0.0
210
0.0
220
0.0
230
1.0
  0
LINE
  5
47
100
AcDbEntity
  8
0
370
    13
390
0
 62
     7
 48
0.1
100
AcDbLine
 10
200.0
 20
10.0
 30
0.0
 11
200.0
 21
6.0
 31
0.0
210
0.0
220
0.0
230
1.0
  0
LINE
  5
48
100
AcDbEntity
  8
0
370
    35
390
0
 62
     7
100
AcDbLine
 10
20.0
 20
31.5
 30
0.0
 11
20.0
 21
10.0
 31
0.0
210
0.0
220
0.0
230
1.0
  0
LINE
  5
49
100
AcDbEntity
  8
0
370
    35
390
0
 62
     7
100
AcDbLine
 10
71.0
 20
31.5
 30
0.0
 11
71.0
 21
10.0
 31
0.0
210
0.0
220
0.0
230
1.0
  0
LINE
  5
4A
100
AcDbEntity
  8
0
370
    13
390
0
 62
   252
100
AcDbLine
 10
148.312393
 20
18.5
 30
0.0
 11
199.5
 21
18.5
 31
0.0
210
0.0
220
0.0
230
1.0
  0
LINE
  5
4B
100
AcDbEntity
  8
0
370
    35
390
0
 62
     7
 48
0.3375
100
AcDbLine
 10
147.812393
 20
18.0
 30
0.0
 11
147.812393
 21
31.5
 31
0.0
210
0.0
220
0.0
230
1.0
  0
LINE
  5
4C
100
AcDbEntity
  8
0
370
    35
390
0
 62
     7
100
AcDbLine
 10
20.0
 20
31.5
 30
0.0
 11
200.0
 21
31.5
 31
0.0
210
0.0
220
0.0
230
1.0
  0
LINE
  5
4D
100
AcDbEntity
  8
0
370
    35
390
0
 62
     7
100
AcDbLine
 10
147.812393
 20
31.5
 30
0.0
 11
200.0
 21
31.5
 31
0.0
210
0.0
220
0.0
230
1.0
  0
LINE
  5
4E
100
AcDbEntity
  8
0
370
    35
390
0
 62
     7
100
AcDbLine
 10
147.812393
 20
18.0
 30
0.0
 11
198.5
 21
18.0
 31
0.0
210
0.0
220
0.0
230
1.0
  0
LINE
  5
4F
100
AcDbEntity
  8
0
370
    35
390
0
 62
     7
 48
0.325
100
AcDbLine
 10
187.0
 20
18.0
 30
0.0
 11
200.0
 21
18.0
 31
0.0
210
0.0
220
0.0
230
1.0
  0
LINE
  5
50
100
AcDbEntity
  8
0
370
    13
390
0
 62
     7
100
AcDbLine
 10
148.312393
 20
31.0
 30
0.0
 11
199.5
 21
31.0
 31
0.0
210
0.0
220
0.0
230
1.0
  0
LINE
  5
51
100
AcDbEntity
  8
0
370
    13
390
0
 62
     7
 48
0.3125
100
AcDbLine
 10
199.5
 20
31.0
 30
0.0
 11
199.5
 21
18.5
 31
0.0
210
0.0
220
0.0
230
1.0
  0
LINE
  5
52
100
AcDbEntity
  8
0
370
    13
390
0
 62
     7
 48
0.3125
100
AcDbLine
 10
148.312393
 20
18.5
 30
0.0
 11
148.312393
 21
31.0
 31
0.0
210
0.0
220
0.0
230
1.0
  0
LINE
  5
53
100
AcDbEntity
  8
0
370
    35
390
0
 62
     7
100
AcDbLine
 10
147.812393
 20
18.0
 30
0.0
 11
71.0
 21
18.0
 31
0.0
210
0.0
220
0.0
230
1.0
  0
LINE
  5
54
100
AcDbEntity
  8
0
370
    35
390
0
 62
     7
100
AcDbLine
 10
20.0
 20
10.0
 30
0.0
 11
200.0
 21
10.0
 31
0.0
210
0.0
220
0.0
230
1.0
  0
LINE
  5
55
100
AcDbEntity
  8
0
370
    35
390
0
 62
     7
100
AcDbLine
 10
200.0
 20
10.0
 30
0.0
 11
200.0
 21
31.5
 31
0.0
210
0.0
220
0.0
230
1.0
  0
DIMENSION
  5
57
100
AcDbEntity
  8
0
370
     0
390
0
 62
     0
100
AcDbDimension
  2
*D29
 10
55.036136
 20
247.080887
 30
0.0
 11
110.536136
 21
247.080887
 31
0.0
 70
   161
 71
     5
 72
     1
 41
1.0
 42
0.0
210
0.0
220
0.0
230
1.0
 52
89.999523
  3
STANDARD
100
AcDbAlignedDimension
 13
166.036136
 23
226.56679
 33
0.0
 14
55.036136
 24
226.56679
 34
0.0
  0
DIMENSION
  5
59
100
AcDbEntity
  8
0
370
     0
390
0
 62
     0
100
AcDbDimension
  2
*D30
 10
47.104171
 20
226.682181
 30
0.0
 11
47.104171
 21
205.782181
 31
0.0
 70
   161
 71
     5
 72
     1
 41
1.0
 42
0.0
210
0.0
220
0.0
230
1.0
 52
89.999523
  1
G1 1/4" ISO 228/1
  3
STANDARD
100
AcDbAlignedDimension
 13
55.036136
 23
184.882181
 33
0.0
 14
55.036136
 24
226.682181
 34
0.0
  0
DIMENSION
  5
5B
100
AcDbEntity
  8
0
370
     0
390
0
 62
     0
100
AcDbDimension
  2
*D31
 10
179.603748
 20
226.682181
 30
0.0
 11
179.603748
 21
205.782181
 31
0.0
 70
   161
 71
     5
 72
     1
 41
1.0
 42
0.0
210
0.0
220
0.0
230
1.0
 52
89.999523
  1
G1 1/4" ISO 228/1
  3
STANDARD
100
AcDbAlignedDimension
 13
166.036136
 23
184.882181
 33
0.0
 14
166.036136
 24
226.682181
 34
0.0
  0
LINE
  5
5C
100
AcDbEntity
  8
0
370
    13
390
0
  6
DASHDOT
 62
     7
100
AcDbLine
 10
171.494785
 20
205.782181
 30
0.0
 11
51.904231
 21
205.782181
 31
0.0
210
0.0
220
0.0
230
1.0
  0
DIMENSION
  5
5E
100
AcDbEntity
  8
0
370
     0
390
0
 62
     0
100
AcDbDimension
  2
*D33
 10
38.717983
 20
147.864395
 30
0.0
 11
38.717983
 21
117.364395
 31
0.0
 70
   161
 71
     5
 72
     1
 41
1.0
 42
0.0
210
0.0
220
0.0
230
1.0
 52
89.999523
  1
%%c<>
  3
STANDARD
100
AcDbAlignedDimension
 13
82.422887
 23
86.864395
 33
0.0
 14
82.422887
 24
147.864395
 34
0.0
  0
DIMENSION
  5
60
100
AcDbEntity
  8
0
370
     0
390
0
 62
     0
100
AcDbDimension
  2
*D34
 10
47.104171
 20
141.364395
 30
0.0
 11
47.104171
 21
118.220087
 31
0.0
 70
   161
 71
     5
 72
     1
 41
1.0
 42
0.0
210
0.0
220
0.0
230
1.0
 52
89.999523
  1
Es.Ch.<>( \U+00D853 )
  3
STANDARD
100
AcDbAlignedDimension
 13
56.479512
 23
93.364395
 33
0.0
 14
56.479512
 24
141.364395
 34
0.0
  0
DIMENSION
  5
62
100
AcDbEntity
  8
0
370
     0
390
0
 62
     0
100
AcDbDimension
  2
*D35
 10
179.603748
 20
141.364395
 30
0.0
 11
179.603748
 21
119.097898
 31
0.0
 70
   161
 71
     5
 72
     1
 41
1.0
 42
0.0
210
0.0
220
0.0
230
1.0
 52
89.999523
  1
Es.Ch.<>( \U+00D852,5 )
  3
STANDARD
100
AcDbAlignedDimension
 13
164.737098
 23
93.364395
 33
0.0
 14
164.737098
 24
141.364395
 34
0.0
  0
LINE
  5
63
100
AcDbEntity
  8
0
370
    13
390
0
  6
DASHDOT
 62
     7
100
AcDbLine
 10
171.136653
 20
117.364395
 30
0.0
 11
49.971225
 21
117.364395
 31
0.0
210
0.0
220
0.0
230
1.0
  0
INSERT
  5
26D
100
AcDbEntity
  8
0
370
     0
390
0
100
AcDbBlockReference
  2
BLOCK61
 10
0.0
 20
0.0
 30
0.0
210
0.0
220
0.0
230
1.0
  0
INSERT
  5
26E
100
AcDbEntity
  8
0
370
     0
390
0
100
AcDbBlockReference
  2
BLOCK62
 10
0.0
 20
0.0
 30
0.0
210
0.0
220
0.0
230
1.0
  0
INSERT
  5
26F
100
AcDbEntity
  8
0
370
     0
390
0
100
AcDbBlockReference
  2
BLOCK63
 10
0.0
 20
0.0
 30
0.0
210
0.0
220
0.0
230
1.0
  0
INSERT
  5
270
100
AcDbEntity
  8
0
370
     0
390
0
100
AcDbBlockReference
  2
BLOCK64
 10
0.0
 20
0.0
 30
0.0
210
0.0
220
0.0
230
1.0
  0
INSERT
  5
271
100
AcDbEntity
  8
0
370
     0
390
0
100
AcDbBlockReference
  2
BLOCK65
 10
0.0
 20
0.0
 30
0.0
210
0.0
220
0.0
230
1.0
  0
INSERT
  5
272
100
AcDbEntity
  8
0
370
     0
390
0
100
AcDbBlockReference
  2
BLOCK66
 10
0.0
 20
0.0
 30
0.0
210
0.0
220
0.0
230
1.0
  0
INSERT
  5
273
100
AcDbEntity
  8
0
370
     0
390
0
100
AcDbBlockReference
  2
BLOCK67
 10
0.0
 20
0.0
 30
0.0
210
0.0
220
0.0
230
1.0
  0
INSERT
  5
274
100
AcDbEntity
  8
0
370
     0
390
0
100
AcDbBlockReference
  2
BLOCK68
 10
0.0
 20
0.0
 30
0.0
210
0.0
220
0.0
230
1.0
  0
INSERT
  5
275
100
AcDbEntity
  8
0
370
     0
390
0
100
AcDbBlockReference
  2
BLOCK69
 10
0.0
 20
0.0
 30
0.0
210
0.0
220
0.0
230
1.0
  0
INSERT
  5
276
100
AcDbEntity
  8
0
370
     0
390
0
100
AcDbBlockReference
  2
BLOCK70
 10
0.0
 20
0.0
 30
0.0
210
0.0
220
0.0
230
1.0
  0
INSERT
  5
277
100
AcDbEntity
  8
0
370
     0
390
0
100
AcDbBlockReference
  2
BLOCK71
 10
0.0
 20
0.0
 30
0.0
210
0.0
220
0.0
230
1.0
  0
INSERT
  5
278
100
AcDbEntity
  8
0
370
     0
390
0
100
AcDbBlockReference
  2
BLOCK72
 10
0.0
 20
0.0
 30
0.0
210
0.0
220
0.0
230
1.0
  0
INSERT
  5
279
100
AcDbEntity
  8
0
370
     0
390
0
100
AcDbBlockReference
  2
BLOCK73
 10
0.0
 20
0.0
 30
0.0
210
0.0
220
0.0
230
1.0
  0
INSERT
  5
27A
100
AcDbEntity
  8
0
370
     0
390
0
100
AcDbBlockReference
  2
BLOCK74
 10
0.0
 20
0.0
 30
0.0
210
0.0
220
0.0
230
1.0
  0
INSERT
  5
27B
100
AcDbEntity
  8
0
370
     0
390
0
100
AcDbBlockReference
  2
BLOCK75
 10
0.0
 20
0.0
 30
0.0
210
0.0
220
0.0
230
1.0
  0
INSERT
  5
27C
100
AcDbEntity
  8
0
370
     0
390
0
100
AcDbBlockReference
  2
BLOCK76
 10
0.0
 20
0.0
 30
0.0
210
0.0
220
0.0
230
1.0
  0
INSERT
  5
27D
100
AcDbEntity
  8
0
370
     0
390
0
100
AcDbBlockReference
  2
BLOCK77
 10
0.0
 20
0.0
 30
0.0
210
0.0
220
0.0
230
1.0
  0
INSERT
  5
27E
100
AcDbEntity
  8
0
370
     0
390
0
100
AcDbBlockReference
  2
BLOCK78
 10
0.0
 20
0.0
 30
0.0
210
0.0
220
0.0
230
1.0
  0
INSERT
  5
27F
100
AcDbEntity
  8
0
370
     0
390
0
100
AcDbBlockReference
  2
BLOCK79
 10
0.0
 20
0.0
 30
0.0
210
0.0
220
0.0
230
1.0
  0
INSERT
  5
280
100
AcDbEntity
  8
0
370
     0
390
0
100
AcDbBlockReference
  2
BLOCK80
 10
0.0
 20
0.0
 30
0.0
210
0.0
220
0.0
230
1.0
  0
INSERT
  5
281
100
AcDbEntity
  8
0
370
     0
390
0
100
AcDbBlockReference
  2
BLOCK81
 10
0.0
 20
0.0
 30
0.0
210
0.0
220
0.0
230
1.0
  0
INSERT
  5
282
100
AcDbEntity
  8
0
370
     0
390
0
100
AcDbBlockReference
  2
BLOCK82
 10
0.0
 20
0.0
 30
0.0
210
0.0
220
0.0
230
1.0
  0
INSERT
  5
283
100
AcDbEntity
  8
0
370
     0
390
0
100
AcDbBlockReference
  2
BLOCK83
 10
0.0
 20
0.0
 30
0.0
210
0.0
220
0.0
230
1.0
  0
INSERT
  5
284
100
AcDbEntity
  8
0
370
     0
390
0
100
AcDbBlockReference
  2
BLOCK84
 10
0.0
 20
0.0
 30
0.0
210
0.0
220
0.0
230
1.0
  0
INSERT
  5
285
100
AcDbEntity
  8
0
370
     0
390
0
100
AcDbBlockReference
  2
BLOCK85
 10
0.0
 20
0.0
 30
0.0
210
0.0
220
0.0
230
1.0
  0
INSERT
  5
286
100
AcDbEntity
  8
0
370
     0
390
0
100
AcDbBlockReference
  2
BLOCK86
 10
0.0
 20
0.0
 30
0.0
210
0.0
220
0.0
230
1.0
  0
INSERT
  5
287
100
AcDbEntity
  8
0
370
     0
390
0
100
AcDbBlockReference
  2
BLOCK87
 10
0.0
 20
0.0
 30
0.0
210
0.0
220
0.0
230
1.0
  0
INSERT
  5
288
100
AcDbEntity
  8
0
370
     0
390
0
100
AcDbBlockReference
  2
BLOCK88
 10
0.0
 20
0.0
 30
0.0
210
0.0
220
0.0
230
1.0
  0
INSERT
  5
289
100
AcDbEntity
  8
0
370
     0
390
0
100
AcDbBlockReference
  2
BLOCK89
 10
0.0
 20
0.0
 30
0.0
210
0.0
220
0.0
230
1.0
  0
INSERT
  5
28A
100
AcDbEntity
  8
0
370
     0
390
0
100
AcDbBlockReference
  2
BLOCK90
 10
100.036136
 20
205.782181
 30
0.0
210
0.0
220
0.0
230
1.0
  0
INSERT
  5
28B
100
AcDbEntity
  8
0
370
     0
390
0
100
AcDbBlockReference
  2
BLOCK91
 10
100.036136
 20
117.364395
 30
0.0
210
0.0
220
0.0
230
1.0
  0
ENDSEC
  0
SECTION
  2
OBJECTS
  0
DICTIONARY
  5
19
100
AcDbDictionary
280
     0
281
     1
  3
ACAD_GROUP
350
1A
  3
ACAD_MLINESTYLE
350
1B
  3
ACAD_LAYOUT
350
1E
  3
ACAD_PLOTSETTINGS
350
22
  3
ACAD_PLOTSTYLENAME
350
1F
  3
ACAD_WIPEOUT_VARS
350
23
  0
DICTIONARY
  5
1A
102
{ACAD_REACTORS
330
19
102
}
100
AcDbDictionary
280
     0
281
     1
  0
DICTIONARY
  5
1B
102
{ACAD_REACTORS
330
19
102
}
100
AcDbDictionary
280
     0
281
     1
  3
Standard
350
1C
  0
MLINESTYLE
  5
1C
102
{ACAD_REACTORS
330
1B
102
}
100
AcDbMlineStyle
  2
Standard
 70
     0
  3

 62
     0
 51
90.0
 52
90.0
 71
     2
 49
0.5
 62
   256
  6
ByLayer
 49
-0.5
 62
   256
  6
ByLayer
  0
ACDBDICTIONARYWDFLT
  5
1F
102
{ACAD_REACTORS
330
19
102
}
100
AcDbDictionary
281
     1
  3
Normal
350
1D
100
AcDbDictionaryWithDefault
340
1D
  0
ACDBPLACEHOLDER
  5
1D
102
{ACAD_REACTORS
330
1F
102
}
  0
LAYOUT
  5
20
102
{ACAD_REACTORS
330
1E
102
}
100
AcDbPlotSettings
  1

  2

  4

  6

 40
0.0
 41
0.0
 42
0.0
 43
0.0
 44
0.0
 45
0.0
 46
0.0
 47
0.0
 48
0.0
 49
0.0
140
0.0
141
0.0
142
1.0
143
1.0
 70
  1024
 72
     0
 73
     0
 74
     0
  7

 75
     0
147
1.0
148
0.0
149
0.0
100
AcDbLayout
  1
Model
 70
     0
 71
     0
 10
0.0
 20
0.0
 11
0.0
 21
0.0
 12
0.0
 22
0.0
 32
0.0
 14
0.0
 24
0.0
 34
0.0
 15
0.0
 25
0.0
 35
0.0
146
0.0
 13
0.0
 23
0.0
 33
0.0
 16
0.0
 26
0.0
 36
0.0
 17
0.0
 27
0.0
 37
0.0
 76
     0
330
A
331
0
345
0
346
0
  0
LAYOUT
  5
21
102
{ACAD_REACTORS
330
1E
102
}
100
AcDbPlotSettings
  1

  2

  4

  6

 40
0.0
 41
0.0
 42
0.0
 43
0.0
 44
0.0
 45
0.0
 46
0.0
 47
0.0
 48
0.0
 49
0.0
140
0.0
141
0.0
142
1.0
143
1.0
 70
     0
 72
     0
 73
     0
 74
     0
  7

 75
     0
147
1.0
148
0.0
149
0.0
100
AcDbLayout
  1
Layout1
 70
     0
 71
     0
 10
0.0
 20
0.0
 11
0.0
 21
0.0
 12
0.0
 22
0.0
 32
0.0
 14
0.0
 24
0.0
 34
0.0
 15
0.0
 25
0.0
 35
0.0
146
0.0
 13
0.0
 23
0.0
 33
0.0
 16
0.0
 26
0.0
 36
0.0
 17
0.0
 27
0.0
 37
0.0
 76
     0
330
B
331
0
345
0
346
0
  0
DICTIONARY
  5
1E
102
{ACAD_REACTORS
330
19
102
}
100
AcDbDictionary
280
     0
281
     1
  3
Layout1
350
21
  3
Model
350
20
  0
DICTIONARY
  5
22
102
{ACAD_REACTORS
330
19
102
}
100
AcDbDictionary
280
     0
281
     1
  0
WIPEOUTVARIABLES
  5
23
100
AcDbWipeoutVariables
 70
     1
  0
ENDSEC
  0
EOF
